  0
SECTION
  2
HEADER
  9
$ACADVER
  1
AC1018
  9
$ACADMAINTVER
 70
   104
  9
$DWGCODEPAGE
  3
ANSI_1252
  9
$LASTSAVEDBY
  1
Joseph H Fortier
  9
$INSBASE
 10
0.0
 20
0.0
 30
0.0
  9
$EXTMIN
 10
-0.8951802582263113
 20
0.0
 30
0.0
  9
$EXTMAX
 10
9.062500000000003
 20
7.124999999999998
 30
0.0
  9
$LIMMIN
 10
0.0
 20
0.0
  9
$LIMMAX
 10
12.0
 20
9.0
  9
$ORTHOMODE
 70
     0
  9
$REGENMODE
 70
     1
  9
$FILLMODE
 70
     1
  9
$QTEXTMODE
 70
     0
  9
$MIRRTEXT
 70
     0
  9
$LTSCALE
 40
1.0
  9
$ATTMODE
 70
     1
  9
$TEXTSIZE
 40
0.09
  9
$TRACEWID
 40
0.05
  9
$TEXTSTYLE
  7
DETAIL TEXT
  9
$CLAYER
  8
0
  9
$CELTYPE
  6
ByLayer
  9
$CECOLOR
 62
   256
  9
$CELTSCALE
 40
1.0
  9
$DISPSILH
 70
     0
  9
$DIMSCALE
 40
1.0
  9
$DIMASZ
 40
0.12
  9
$DIMEXO
 40
0.0625
  9
$DIMDLI
 40
0.38
  9
$DIMRND
 40
0.0
  9
$DIMDLE
 40
0.0
  9
$DIMEXE
 40
0.18
  9
$DIMTP
 40
0.0
  9
$DIMTM
 40
0.0
  9
$DIMTXT
 40
0.09
  9
$DIMCEN
 40
0.09
  9
$DIMTSZ
 40
0.0
  9
$DIMTOL
 70
     0
  9
$DIMLIM
 70
     0
  9
$DIMTIH
 70
     1
  9
$DIMTOH
 70
     1
  9
$DIMSE1
 70
     0
  9
$DIMSE2
 70
     0
  9
$DIMTAD
 70
     0
  9
$DIMZIN
 70
     0
  9
$DIMBLK
  1

  9
$DIMASO
 70
     1
  9
$DIMSHO
 70
     1
  9
$DIMPOST
  1

  9
$DIMAPOST
  1

  9
$DIMALT
 70
     0
  9
$DIMALTD
 70
     2
  9
$DIMALTF
 40
25.4
  9
$DIMLFAC
 40
1.0
  9
$DIMTOFL
 70
     0
  9
$DIMTVP
 40
0.0
  9
$DIMTIX
 70
     0
  9
$DIMSOXD
 70
     0
  9
$DIMSAH
 70
     0
  9
$DIMBLK1
  1

  9
$DIMBLK2
  1

  9
$DIMSTYLE
  2
Netafim Detail
  9
$DIMCLRD
 70
     0
  9
$DIMCLRE
 70
     0
  9
$DIMCLRT
 70
     0
  9
$DIMTFAC
 40
1.0
  9
$DIMGAP
 40
0.09
  9
$DIMJUST
 70
     0
  9
$DIMSD1
 70
     0
  9
$DIMSD2
 70
     0
  9
$DIMTOLJ
 70
     1
  9
$DIMTZIN
 70
     0
  9
$DIMALTZ
 70
     0
  9
$DIMALTTZ
 70
     0
  9
$DIMUPT
 70
     0
  9
$DIMDEC
 70
     2
  9
$DIMTDEC
 70
     2
  9
$DIMALTU
 70
     2
  9
$DIMALTTD
 70
     2
  9
$DIMTXSTY
  7
Netafim Detail
  9
$DIMAUNIT
 70
     0
  9
$DIMADEC
 70
     0
  9
$DIMALTRND
 40
0.0
  9
$DIMAZIN
 70
     0
  9
$DIMDSEP
 70
    46
  9
$DIMATFIT
 70
     3
  9
$DIMFRAC
 70
     0
  9
$DIMLDRBLK
  1

  9
$DIMLUNIT
 70
     2
  9
$DIMLWD
 70
    -2
  9
$DIMLWE
 70
    -2
  9
$DIMTMOVE
 70
     0
  9
$LUNITS
 70
     2
  9
$LUPREC
 70
     4
  9
$SKETCHINC
 40
0.1
  9
$FILLETRAD
 40
0.0
  9
$AUNITS
 70
     0
  9
$AUPREC
 70
     0
  9
$MENU
  1
.
  9
$ELEVATION
 40
0.0
  9
$PELEVATION
 40
0.0
  9
$THICKNESS
 40
0.0
  9
$LIMCHECK
 70
     0
  9
$CHAMFERA
 40
0.0
  9
$CHAMFERB
 40
0.0
  9
$CHAMFERC
 40
0.0
  9
$CHAMFERD
 40
0.0
  9
$SKPOLY
 70
     0
  9
$TDCREATE
 40
2456012.517465637
  9
$TDUCREATE
 40
2456012.809132303
  9
$TDUPDATE
 40
2456153.575704653
  9
$TDUUPDATE
 40
2456153.867371320
  9
$TDINDWG
 40
0.5610350926
  9
$TDUSRTIMER
 40
0.5610350926
  9
$USRTIMER
 70
     1
  9
$ANGBASE
 50
0.0
  9
$ANGDIR
 70
     0
  9
$PDMODE
 70
     0
  9
$PDSIZE
 40
0.0
  9
$PLINEWID
 40
0.0
  9
$SPLFRAME
 70
     0
  9
$SPLINETYPE
 70
     6
  9
$SPLINESEGS
 70
     8
  9
$HANDSEED
  5
D91A
  9
$SURFTAB1
 70
     6
  9
$SURFTAB2
 70
     6
  9
$SURFTYPE
 70
     6
  9
$SURFU
 70
     6
  9
$SURFV
 70
     6
  9
$UCSBASE
  2

  9
$UCSNAME
  2

  9
$UCSORG
 10
0.0
 20
0.0
 30
0.0
  9
$UCSXDIR
 10
1.0
 20
0.0
 30
0.0
  9
$UCSYDIR
 10
0.0
 20
1.0
 30
0.0
  9
$UCSORTHOREF
  2

  9
$UCSORTHOVIEW
 70
     0
  9
$UCSORGTOP
 10
0.0
 20
0.0
 30
0.0
  9
$UCSORGBOTTOM
 10
0.0
 20
0.0
 30
0.0
  9
$UCSORGLEFT
 10
0.0
 20
0.0
 30
0.0
  9
$UCSORGRIGHT
 10
0.0
 20
0.0
 30
0.0
  9
$UCSORGFRONT
 10
0.0
 20
0.0
 30
0.0
  9
$UCSORGBACK
 10
0.0
 20
0.0
 30
0.0
  9
$PUCSBASE
  2

  9
$PUCSNAME
  2

  9
$PUCSORG
 10
0.0
 20
0.0
 30
0.0
  9
$PUCSXDIR
 10
1.0
 20
0.0
 30
0.0
  9
$PUCSYDIR
 10
0.0
 20
1.0
 30
0.0
  9
$PUCSORTHOREF
  2

  9
$PUCSORTHOVIEW
 70
     0
  9
$PUCSORGTOP
 10
0.0
 20
0.0
 30
0.0
  9
$PUCSORGBOTTOM
 10
0.0
 20
0.0
 30
0.0
  9
$PUCSORGLEFT
 10
0.0
 20
0.0
 30
0.0
  9
$PUCSORGRIGHT
 10
0.0
 20
0.0
 30
0.0
  9
$PUCSORGFRONT
 10
0.0
 20
0.0
 30
0.0
  9
$PUCSORGBACK
 10
0.0
 20
0.0
 30
0.0
  9
$USERI1
 70
     0
  9
$USERI2
 70
     0
  9
$USERI3
 70
     0
  9
$USERI4
 70
     0
  9
$USERI5
 70
     0
  9
$USERR1
 40
0.0
  9
$USERR2
 40
0.0
  9
$USERR3
 40
0.0
  9
$USERR4
 40
0.0
  9
$USERR5
 40
1.0
  9
$WORLDVIEW
 70
     1
  9
$SHADEDGE
 70
     3
  9
$SHADEDIF
 70
    70
  9
$TILEMODE
 70
     1
  9
$MAXACTVP
 70
    64
  9
$PINSBASE
 10
0.0
 20
0.0
 30
0.0
  9
$PLIMCHECK
 70
     0
  9
$PEXTMIN
 10
0.0
 20
0.0
 30
0.0
  9
$PEXTMAX
 10
0.0
 20
0.0
 30
0.0
  9
$PLIMMIN
 10
0.0
 20
0.0
  9
$PLIMMAX
 10
12.0
 20
9.0
  9
$UNITMODE
 70
     0
  9
$VISRETAIN
 70
     1
  9
$PLINEGEN
 70
     0
  9
$PSLTSCALE
 70
     1
  9
$TREEDEPTH
 70
  3020
  9
$CMLSTYLE
  2
Standard
  9
$CMLJUST
 70
     0
  9
$CMLSCALE
 40
1.0
  9
$PROXYGRAPHICS
 70
     1
  9
$MEASUREMENT
 70
     0
  9
$CELWEIGHT
370
    -1
  9
$ENDCAPS
280
     0
  9
$JOINSTYLE
280
     0
  9
$LWDISPLAY
290
     0
  9
$INSUNITS
 70
     1
  9
$HYPERLINKBASE
  1

  9
$STYLESHEET
  1

  9
$XEDIT
290
     1
  9
$CEPSNTYPE
380
     0
  9
$PSTYLEMODE
290
     1
  9
$FINGERPRINTGUID
  2
{54E25747-DECD-4F46-8E40-CC13C71438EE}
  9
$VERSIONGUID
  2
{66BCEE66-82C6-4485-86E5-2011BA988CEC}
  9
$EXTNAMES
290
     1
  9
$PSVPSCALE
 40
0.0
  9
$OLESTARTUP
290
     0
  9
$SORTENTS
280
   127
  9
$INDEXCTL
280
     0
  9
$HIDETEXT
280
     1
  9
$XCLIPFRAME
290
     0
  9
$HALOGAP
280
     0
  9
$OBSCOLOR
 70
   257
  9
$OBSLTYPE
280
     0
  9
$INTERSECTIONDISPLAY
280
     0
  9
$INTERSECTIONCOLOR
 70
   257
  9
$DIMASSOC
280
     2
  9
$PROJECTNAME
  1

  0
ENDSEC
  0
SECTION
  2
CLASSES
  0
CLASS
  1
ACDBDICTIONARYWDFLT
  2
AcDbDictionaryWithDefault
  3
ObjectDBX Classes
 90
        0
 91
        1
280
     0
281
     0
  0
CLASS
  1
DICTIONARYVAR
  2
AcDbDictionaryVar
  3
ObjectDBX Classes
 90
        0
 91
       13
280
     0
281
     0
  0
CLASS
  1
TABLESTYLE
  2
AcDbTableStyle
  3
ObjectDBX Classes
 90
     4095
 91
        2
280
     0
281
     0
  0
CLASS
  1
MATERIAL
  2
AcDbMaterial
  3
ObjectDBX Classes
 90
     1153
 91
        3
280
     0
281
     0
  0
CLASS
  1
VISUALSTYLE
  2
AcDbVisualStyle
  3
ObjectDBX Classes
 90
     4095
 91
       26
280
     0
281
     0
  0
CLASS
  1
SCALE
  2
AcDbScale
  3
ObjectDBX Classes
 90
     1153
 91
       33
280
     0
281
     0
  0
CLASS
  1
MLEADERSTYLE
  2
AcDbMLeaderStyle
  3
ACDB_MLEADERSTYLE_CLASS
 90
     4095
 91
        2
280
     0
281
     0
  0
CLASS
  1
CELLSTYLEMAP
  2
AcDbCellStyleMap
  3
ObjectDBX Classes
 90
     1152
 91
        4
280
     0
281
     0
  0
CLASS
  1
EXACXREFPANELOBJECT
  2
ExAcXREFPanelObject
  3
EXAC_ESW
 90
     1025
 91
        0
280
     0
281
     0
  0
CLASS
  1
NPOCOLLECTION
  2
AcDbImpNonPersistentObjectsCollection
  3
ObjectDBX Classes
 90
     1153
 91
        0
280
     0
281
     0
  0
CLASS
  1
LAYER_INDEX
  2
AcDbLayerIndex
  3
ObjectDBX Classes
 90
        0
 91
        0
280
     0
281
     0
  0
CLASS
  1
SPATIAL_INDEX
  2
AcDbSpatialIndex
  3
ObjectDBX Classes
 90
        0
 91
        0
280
     0
281
     0
  0
CLASS
  1
IDBUFFER
  2
AcDbIdBuffer
  3
ObjectDBX Classes
 90
        0
 91
        0
280
     0
281
     0
  0
CLASS
  1
DMMAPMANAGER
  2
AcMapDMMapManager
  3
AcMapDisplayManagement
 90
     1024
 91
        1
280
     0
281
     0
  0
CLASS
  1
DMSTYLELIBRARY
  2
AcMapDMStyleLibrary
  3
AcMapDisplayManagement
 90
     1024
 91
        1
280
     0
281
     0
  0
CLASS
  1
DMSTYLECATEGORY
  2
AcMapDMStyleCategory
  3
AcMapDisplayManagement
 90
     1024
 91
        1
280
     0
281
     0
  0
CLASS
  1
DATATABLE
  2
AcDbDataTable
  3
ObjectDBX Classes
 90
        0
 91
        1
280
     0
281
     0
  0
CLASS
  1
DMMAP
  2
AcMapDMMap
  3
AcMapDisplayManagement
 90
     1024
 91
        1
280
     0
281
     0
  0
CLASS
  1
DMBASEELEMENT
  2
AcMapDMBaseElement
  3
AcMapDisplayManagement
 90
     1024
 91
        1
280
     0
281
     0
  0
CLASS
  1
DMDEFAULTSTYLE
  2
AcMapDMDefaultStyle
  3
AcMapDisplayManagement
 90
     1024
 91
        1
280
     0
281
     0
  0
CLASS
  1
DMSTYLEREFERENCE
  2
AcMapDMStyleReference
  3
AcMapDisplayManagement
 90
     1024
 91
        1
280
     0
281
     0
  0
CLASS
  1
DMSURROGATESTYLESETS
  2
AcMapDMSurrogateStyleSets
  3
AcMapDisplayManagement
 90
     1153
 91
        1
280
     0
281
     0
  0
CLASS
  1
SORTENTSTABLE
  2
AcDbSortentsTable
  3
ObjectDBX Classes
 90
        0
 91
        1
280
     0
281
     0
  0
CLASS
  1
DMSTYLIZEDENTITIESTABLE
  2
AcMapDMStylizedEntitiesTable
  3
AcMapDisplayManagement
 90
     1024
 91
        1
280
     0
281
     0
  0
CLASS
  1
MAPGWSUNDOOBJECT
  2
AcMapGWSUndoRecorder
  3
AcMapFeatureSourceManager
 90
     1025
 91
        1
280
     0
281
     0
  0
CLASS
  1
SUN
  2
AcDbSun
  3
SCENEOE
 90
     1153
 91
        1
280
     0
281
     0
  0
CLASS
  1
GEODATA
  2
AcDbGeoData
  3
ObjectDBX Classes
 90
     4095
 91
        1
280
     0
281
     0
  0
CLASS
  1
MAPRESOURCEMANAGEROBJECT
  2
AcMapResourceManager
  3
AcMapSharedComponents
 90
     1024
 91
        0
280
     0
281
     0
  0
CLASS
  1
MULTILEADER
  2
AcDbMLeader
  3
ACDB_MLEADER_CLASS
 90
     1025
 91
        7
280
     0
281
     1
  0
CLASS
  1
DIMASSOC
  2
AcDbDimAssoc
  3
"AcDbDimAssoc|Product Desc:     AcDim ARX App For Dimension|Company:          Autodesk, Inc.|WEB Address:      www.autodesk.com"
 90
        0
 91
        2
280
     0
281
     0
  0
CLASS
  1
AEC_REFEDIT_STATUS_TRACKER
  2
AecDbRefEditStatusTracker
  3
AecArchBase60|Product Desc: Autodesk Architectural Desktop 2007 |Company: Autodesk,Inc. |WEB Address: www.autodesk.com
 90
      129
 91
        0
280
     0
281
     0
  0
CLASS
  1
PLOTSETTINGS
  2
AcDbPlotSettings
  3
ObjectDBX Classes
 90
        0
 91
        1
280
     0
281
     0
  0
ENDSEC
  0
SECTION
  2
TABLES
  0
TABLE
  2
VPORT
  5
8
102
{ACAD_XDICTIONARY
360
D8AC
102
}
330
0
100
AcDbSymbolTable
 70
     1
  0
VPORT
  5
94
330
8
100
AcDbSymbolTableRecord
100
AcDbViewportTableRecord
  2
*Active
 70
     0
 10
0.0
 20
0.0
 11
1.0
 21
1.0
 12
4.083439677078817
 22
4.192657648982926
 13
0.0
 23
0.0
 14
0.5
 24
0.5
 15
0.5
 25
0.5
 16
0.0
 26
0.0
 36
1.0
 17
0.0
 27
0.0
 37
0.0
 40
7.175061061665395
 41
1.784580498866213
 42
50.0
 43
0.0
 44
0.0
 50
0.0
 51
0.0
 71
     0
 72
  1000
 73
     1
 74
     3
 75
     0
 76
     0
 77
     0
 78
     0
281
     0
 65
     1
110
0.0
120
0.0
130
0.0
111
1.0
121
0.0
131
0.0
112
0.0
122
1.0
132
0.0
 79
     0
146
0.0
1001
ACAD_NAV_VCDISPLAY
1070
     3
  0
ENDTAB
  0
TABLE
  2
LTYPE
  5
5
330
0
100
AcDbSymbolTable
 70
     1
  0
LTYPE
  5
14
330
5
100
AcDbSymbolTableRecord
100
AcDbLinetypeTableRecord
  2
ByBlock
 70
     0
  3

 72
    65
 73
     0
 40
0.0
  0
LTYPE
  5
15
330
5
100
AcDbSymbolTableRecord
100
AcDbLinetypeTableRecord
  2
ByLayer
 70
     0
  3

 72
    65
 73
     0
 40
0.0
  0
LTYPE
  5
16
330
5
100
AcDbSymbolTableRecord
100
AcDbLinetypeTableRecord
  2
Continuous
 70
     0
  3
Solid line
 72
    65
 73
     0
 40
0.0
  0
ENDTAB
  0
TABLE
  2
LAYER
  5
2
102
{ACAD_XDICTIONARY
360
20C
102
}
330
0
100
AcDbSymbolTable
 70
    11
  0
LAYER
  5
10
102
{ACAD_XDICTIONARY
360
E6
102
}
330
2
100
AcDbSymbolTableRecord
100
AcDbLayerTableRecord
  2
0
 70
     0
 62
     7
  6
Continuous
370
    -3
390
F
  0
LAYER
  5
19F
330
2
100
AcDbSymbolTableRecord
100
AcDbLayerTableRecord
  2
NETAFIM-LG-DETL-ANNO
 70
     0
 62
     1
  6
Continuous
370
    -3
390
F
  0
LAYER
  5
1A1
102
{ACAD_XDICTIONARY
360
1A2
102
}
330
2
100
AcDbSymbolTableRecord
100
AcDbLayerTableRecord
  2
NETAFIM-D-TEXT-025M
 70
     0
 62
     2
  6
Continuous
370
    -3
390
F
1001
RAK
1000
{DETAILS
1070
     0
1070
     1
1000
Continuous
1071
       -3
1071
        1
1005
14
1000
DETAILS}
  0
LAYER
  5
1A3
102
{ACAD_XDICTIONARY
360
1A4
102
}
330
2
100
AcDbSymbolTableRecord
100
AcDbLayerTableRecord
  2
NETAFIM-D-070M
 70
     0
 62
     6
  6
Continuous
370
    -3
390
F
1001
RAK
1000
{DETAILS
1070
     0
1070
     5
1000
Continuous
1071
       -3
1071
        1
1005
14
1000
DETAILS}
  0
LAYER
  5
1A7
102
{ACAD_XDICTIONARY
360
1A8
102
}
330
2
100
AcDbSymbolTableRecord
100
AcDbLayerTableRecord
  2
NETAFIM-D-NPLT
 70
     0
 62
     1
  6
Continuous
370
    -3
390
F
  0
LAYER
  5
1EB
330
2
100
AcDbSymbolTableRecord
100
AcDbLayerTableRecord
  2
NETAFIM-L-DETL-013M
 70
     0
 62
     1
  6
Continuous
370
    -3
390
F
  0
LAYER
  5
1EC
330
2
100
AcDbSymbolTableRecord
100
AcDbLayerTableRecord
  2
NETAFIM-L-DETL-025M
 70
     0
 62
     2
  6
Continuous
370
    -3
390
F
  0
LAYER
  5
204
330
2
100
AcDbSymbolTableRecord
100
AcDbLayerTableRecord
  2
NETAFIM-L-DETL-TEXT
 70
     0
 62
     1
  6
Continuous
370
    -3
390
F
1001
AcAecLayerStandard
1000

1000

  0
LAYER
  5
D6C6
330
2
100
AcDbSymbolTableRecord
100
AcDbLayerTableRecord
  2
NETAFIM-L-DETL-035M
 70
     0
 62
     4
  6
Continuous
370
    -3
390
F
  0
LAYER
  5
D72B
102
{ACAD_XDICTIONARY
360
D72C
102
}
330
2
100
AcDbSymbolTableRecord
100
AcDbLayerTableRecord
  2
NETAFIM-L-DETL-TEXT-LEADER-025M
 70
     0
 62
     2
  6
Continuous
370
    -3
390
F
1001
AcAecLayerStandard
1000

1000

  0
LAYER
  5
D733
330
2
100
AcDbSymbolTableRecord
100
AcDbLayerTableRecord
  2
Defpoints
 70
     0
 62
     7
  6
Continuous
290
     0
370
    -3
390
F
  0
ENDTAB
  0
TABLE
  2
STYLE
  5
3
330
0
100
AcDbSymbolTable
 70
     6
  0
STYLE
  5
11
330
3
100
AcDbSymbolTableRecord
100
AcDbTextStyleTableRecord
  2
Standard
 70
     0
 40
0.0
 41
1.0
 50
0.0
 71
     0
 42
0.2
  3
arial.ttf
  4

1001
ACAD
1000
Arial
1071
       34
  0
STYLE
  5
180
330
3
100
AcDbSymbolTableRecord
100
AcDbTextStyleTableRecord
  2
Legend
 70
     0
 40
0.0
 41
1.0
 50
0.0
 71
     0
 42
0.2
  3
CALIBRI.TTF
  4

1001
ACAD
1000
Calibri
1071
      256
  0
STYLE
  5
1A9
330
3
100
AcDbSymbolTableRecord
100
AcDbTextStyleTableRecord
  2
DETAIL NUMBER
 70
     0
 40
0.0
 41
1.0
 50
0.0
 71
     0
 42
0.24
  3
swiss.ttf
  4

1001
ACAD
1000
Swis721 BT
1071
       34
  0
STYLE
  5
1AA
330
3
100
AcDbSymbolTableRecord
100
AcDbTextStyleTableRecord
  2
DETAIL TITLE
 70
     0
 40
0.0
 41
1.0
 50
0.0
 71
     0
 42
0.18
  3
swiss.ttf
  4

1001
ACAD
1000
Swis721 BT
1071
       34
  0
STYLE
  5
1AB
330
3
100
AcDbSymbolTableRecord
100
AcDbTextStyleTableRecord
  2
DETAIL TEXT
 70
     0
 40
0.0
 41
1.0
 50
0.0
 71
     0
 42
0.09
  3
ROMANS.SHX
  4

  0
STYLE
  5
D72D
330
3
100
AcDbSymbolTableRecord
100
AcDbTextStyleTableRecord
  2
Netafim Detail
 70
     0
 40
0.09
 41
1.0
 50
0.0
 71
     0
 42
0.2
  3
arial.ttf
  4

1001
ACAD
1000
Arial
1071
       34
  0
ENDTAB
  0
TABLE
  2
VIEW
  5
6
330
0
100
AcDbSymbolTable
 70
     0
  0
ENDTAB
  0
TABLE
  2
UCS
  5
7
330
0
100
AcDbSymbolTable
 70
     0
  0
ENDTAB
  0
TABLE
  2
APPID
  5
9
330
0
100
AcDbSymbolTable
 70
    18
  0
APPID
  5
12
330
9
100
AcDbSymbolTableRecord
100
AcDbRegAppTableRecord
  2
ACAD
 70
     0
  0
APPID
  5
DD
330
9
100
AcDbSymbolTableRecord
100
AcDbRegAppTableRecord
  2
AcadAnnoPO
 70
     0
  0
APPID
  5
DE
330
9
100
AcDbSymbolTableRecord
100
AcDbRegAppTableRecord
  2
AcadAnnotative
 70
     0
  0
APPID
  5
DF
330
9
100
AcDbSymbolTableRecord
100
AcDbRegAppTableRecord
  2
ACAD_DSTYLE_DIMJAG
 70
     0
  0
APPID
  5
E0
330
9
100
AcDbSymbolTableRecord
100
AcDbRegAppTableRecord
  2
ACAD_DSTYLE_DIMTALN
 70
     0
  0
APPID
  5
107
330
9
100
AcDbSymbolTableRecord
100
AcDbRegAppTableRecord
  2
ACAD_MLEADERVER
 70
     0
  0
APPID
  5
184
330
9
100
AcDbSymbolTableRecord
100
AcDbRegAppTableRecord
  2
AcMapDMDisplayStyleRegapp
 70
     0
  0
APPID
  5
18E
330
9
100
AcDbSymbolTableRecord
100
AcDbRegAppTableRecord
  2
ADE
 70
     0
  0
APPID
  5
191
330
9
100
AcDbSymbolTableRecord
100
AcDbRegAppTableRecord
  2
MapGWS
 70
     0
  0
APPID
  5
194
330
9
100
AcDbSymbolTableRecord
100
AcDbRegAppTableRecord
  2
DCO15
 70
     0
  0
APPID
  5
19E
330
9
100
AcDbSymbolTableRecord
100
AcDbRegAppTableRecord
  2
LandFX
 70
     0
  0
APPID
  5
1AC
330
9
100
AcDbSymbolTableRecord
100
AcDbRegAppTableRecord
  2
RAK
 70
     0
  0
APPID
  5
1AD
330
9
100
AcDbSymbolTableRecord
100
AcDbRegAppTableRecord
  2
ACAD_EXEMPT_FROM_CAD_STANDARDS
 70
     0
  0
APPID
  5
209
330
9
100
AcDbSymbolTableRecord
100
AcDbRegAppTableRecord
  2
ACAD_PSEXT
 70
     0
  0
APPID
  5
20A
330
9
100
AcDbSymbolTableRecord
100
AcDbRegAppTableRecord
  2
AcAecLayerStandard
 70
     0
  0
APPID
  5
20B
330
9
100
AcDbSymbolTableRecord
100
AcDbRegAppTableRecord
  2
ACAD_NAV_VCDISPLAY
 70
     0
  0
APPID
  5
77E
330
9
100
AcDbSymbolTableRecord
100
AcDbRegAppTableRecord
  2
AcLayerTools
 70
     0
  0
APPID
  5
D72F
330
9
100
AcDbSymbolTableRecord
100
AcDbRegAppTableRecord
  2
ACAD_DSTYLE_DIMBREAK
 70
     0
  0
ENDTAB
  0
TABLE
  2
DIMSTYLE
  5
A
330
0
100
AcDbSymbolTable
 70
     2
100
AcDbDimStyleTable
 71
     2
340
D72E
340
27
  0
DIMSTYLE
105
27
330
A
100
AcDbSymbolTableRecord
100
AcDbDimStyleTableRecord
  2
Standard
 70
     0
340
11
  0
DIMSTYLE
105
D72E
102
{ACAD_REACTORS
330
D74A
330
D76E
102
}
330
A
100
AcDbSymbolTableRecord
100
AcDbDimStyleTableRecord
  2
Netafim Detail
 70
     0
 41
0.12
140
0.09
271
     2
272
     2
340
D72D
1001
ACAD_DSTYLE_DIMBREAK
1070
   391
1040
0.125
1001
ACAD_DSTYLE_DIMJAG
1070
   388
1040
1.5
1001
ACAD_DSTYLE_DIMTALN
1070
   392
1070
     0
  0
ENDTAB
  0
TABLE
  2
BLOCK_RECORD
  5
1
330
0
100
AcDbSymbolTable
 70
     3
  0
BLOCK_RECORD
  5
1F
102
{ACAD_XDICTIONARY
360
15D
102
}
330
1
100
AcDbSymbolTableRecord
100
AcDbBlockTableRecord
  2
*Model_Space
340
22
  0
BLOCK_RECORD
  5
58
330
1
100
AcDbSymbolTableRecord
100
AcDbBlockTableRecord
  2
*Paper_Space
340
59
  0
BLOCK_RECORD
  5
5D
330
1
100
AcDbSymbolTableRecord
100
AcDbBlockTableRecord
  2
*Paper_Space0
340
5E
  0
BLOCK_RECORD
  5
D74B
330
1
100
AcDbSymbolTableRecord
100
AcDbBlockTableRecord
  2
*D1
340
0
  0
BLOCK_RECORD
  5
D76F
330
1
100
AcDbSymbolTableRecord
100
AcDbBlockTableRecord
  2
*D2
340
0
  0
ENDTAB
  0
ENDSEC
  0
SECTION
  2
BLOCKS
  0
BLOCK
  5
20
330
1F
100
AcDbEntity
  8
0
100
AcDbBlockBegin
  2
*Model_Space
 70
     0
 10
0.0
 20
0.0
 30
0.0
  3
*Model_Space
  1

  0
ENDBLK
  5
21
330
1F
100
AcDbEntity
  8
0
100
AcDbBlockEnd
  0
BLOCK
  5
5A
330
58
100
AcDbEntity
 67
     1
  8
0
100
AcDbBlockBegin
  2
*Paper_Space
 70
     0
 10
0.0
 20
0.0
 30
0.0
  3
*Paper_Space
  1

  0
ENDBLK
  5
5B
330
58
100
AcDbEntity
 67
     1
  8
0
100
AcDbBlockEnd
  0
BLOCK
  5
5F
330
5D
100
AcDbEntity
 67
     1
  8
0
100
AcDbBlockBegin
  2
*Paper_Space0
 70
     0
 10
0.0
 20
0.0
 30
0.0
  3
*Paper_Space0
  1

  0
ENDBLK
  5
60
330
5D
100
AcDbEntity
 67
     1
  8
0
100
AcDbBlockEnd
  0
BLOCK
  5
D74C
330
D74B
100
AcDbEntity
  8
0
100
AcDbBlockBegin
  2
*D1
 70
     1
 10
0.0
 20
0.0
 30
0.0
  3
*D1
  1

  0
LINE
  5
D845
330
D74B
100
AcDbEntity
  8
NETAFIM-L-DETL-TEXT-LEADER-025M
 62
     0
370
    -2
100
AcDbLine
 10
6.038431864446509
 20
4.43561391020074
 30
0.0
 11
5.748121293843807
 21
4.435613910200741
 31
0.0
  0
LINE
  5
D846
330
D74B
100
AcDbEntity
  8
NETAFIM-L-DETL-TEXT-LEADER-025M
 62
     0
370
    -2
100
AcDbLine
 10
6.051054484036608
 20
5.528372120429457
 30
0.0
 11
5.748121293843807
 21
5.528372120429458
 31
0.0
  0
LINE
  5
D847
330
D74B
100
AcDbEntity
  8
NETAFIM-L-DETL-TEXT-LEADER-025M
 62
     0
370
    -2
100
AcDbLine
 10
5.928121293843807
 20
4.555613910200741
 30
0.0
 11
5.928121293843807
 21
4.7719930153151
 31
0.0
  0
LINE
  5
D848
330
D74B
100
AcDbEntity
  8
NETAFIM-L-DETL-TEXT-LEADER-025M
 62
     0
370
    -2
100
AcDbLine
 10
5.928121293843807
 20
5.408372120429458
 30
0.0
 11
5.928121293843807
 21
5.1919930153151
 31
0.0
  0
SOLID
  5
D849
330
D74B
100
AcDbEntity
  8
NETAFIM-L-DETL-TEXT-LEADER-025M
 62
     0
100
AcDbTrace
 10
5.908121293843807
 20
4.555613910200741
 30
0.0
 11
5.948121293843806
 21
4.555613910200741
 31
0.0
 12
5.928121293843807
 22
4.435613910200741
 32
0.0
 13
5.928121293843807
 23
4.435613910200741
 33
0.0
  0
SOLID
  5
D84A
330
D74B
100
AcDbEntity
  8
NETAFIM-L-DETL-TEXT-LEADER-025M
 62
     0
100
AcDbTrace
 10
5.908121293843807
 20
5.408372120429458
 30
0.0
 11
5.948121293843806
 21
5.408372120429458
 31
0.0
 12
5.928121293843807
 22
5.528372120429458
 32
0.0
 13
5.928121293843807
 23
5.528372120429458
 33
0.0
  0
MTEXT
  5
D84B
330
D74B
100
AcDbEntity
  8
NETAFIM-L-DETL-TEXT-LEADER-025M
 62
     0
100
AcDbMText
 10
5.928121293843806
 20
4.981993015315101
 30
0.0
 40
0.09
 41
0.0
 71
     5
 72
     1
  1
\A1;{\Fromans|c0;SEE\PSPECS}
  7
Netafim Detail
 73
     1
 44
1.0
  0
POINT
  5
D84C
330
D74B
100
AcDbEntity
  8
Defpoints
 62
     0
100
AcDbPoint
 10
6.100931864446509
 20
4.43561391020074
 30
0.0
  0
POINT
  5
D84D
330
D74B
100
AcDbEntity
  8
Defpoints
 62
     0
100
AcDbPoint
 10
6.113554484036608
 20
5.528372120429457
 30
0.0
  0
POINT
  5
D84E
330
D74B
100
AcDbEntity
  8
Defpoints
 62
     0
100
AcDbPoint
 10
5.928121293843807
 20
5.528372120429458
 30
0.0
  0
ENDBLK
  5
D74D
330
D74B
100
AcDbEntity
  8
0
100
AcDbBlockEnd
  0
BLOCK
  5
D770
330
D76F
100
AcDbEntity
  8
0
100
AcDbBlockBegin
  2
*D2
 70
     1
 10
0.0
 20
0.0
 30
0.0
  3
*D2
  1

  0
LINE
  5
D84F
330
D76F
100
AcDbEntity
  8
NETAFIM-L-DETL-TEXT-LEADER-025M
 62
     0
370
    -2
100
AcDbLine
 10
6.218108863494436
 20
5.527886343769053
 30
0.0
 11
6.727265350953777
 21
5.527886343769053
 31
0.0
  0
LINE
  5
D850
330
D76F
100
AcDbEntity
  8
NETAFIM-L-DETL-TEXT-LEADER-025M
 62
     0
370
    -2
100
AcDbLine
 10
6.218108863494436
 20
1.967533910200741
 30
0.0
 11
6.727265350953776
 21
1.967533910200741
 31
0.0
  0
LINE
  5
D851
330
D76F
100
AcDbEntity
  8
NETAFIM-L-DETL-TEXT-LEADER-025M
 62
     0
370
    -2
100
AcDbLine
 10
6.547265350953777
 20
5.407886343769053
 30
0.0
 11
6.547265350953777
 21
3.957710126984898
 31
0.0
  0
LINE
  5
D852
330
D76F
100
AcDbEntity
  8
NETAFIM-L-DETL-TEXT-LEADER-025M
 62
     0
370
    -2
100
AcDbLine
 10
6.547265350953777
 20
2.087533910200741
 30
0.0
 11
6.547265350953777
 21
3.537710126984898
 31
0.0
  0
SOLID
  5
D853
330
D76F
100
AcDbEntity
  8
NETAFIM-L-DETL-TEXT-LEADER-025M
 62
     0
100
AcDbTrace
 10
6.527265350953777
 20
5.407886343769053
 30
0.0
 11
6.567265350953777
 21
5.407886343769053
 31
0.0
 12
6.547265350953777
 22
5.527886343769053
 32
0.0
 13
6.547265350953777
 23
5.527886343769053
 33
0.0
  0
SOLID
  5
D854
330
D76F
100
AcDbEntity
  8
NETAFIM-L-DETL-TEXT-LEADER-025M
 62
     0
100
AcDbTrace
 10
6.527265350953777
 20
2.087533910200741
 30
0.0
 11
6.567265350953777
 21
2.087533910200741
 31
0.0
 12
6.547265350953776
 22
1.967533910200741
 32
0.0
 13
6.547265350953776
 23
1.967533910200741
 33
0.0
  0
MTEXT
  5
D855
330
D76F
100
AcDbEntity
  8
NETAFIM-L-DETL-TEXT-LEADER-025M
 62
     0
100
AcDbMText
 10
6.547265350953776
 20
3.747710126984899
 30
0.0
 40
0.09
 41
0.0
 71
     5
 72
     1
  1
\A1;{\Fromans|c0;SEE\PSPECS}
  7
Netafim Detail
 73
     1
 44
1.0
  0
POINT
  5
D856
330
D76F
100
AcDbEntity
  8
Defpoints
 62
     0
100
AcDbPoint
 10
6.155608863494436
 20
5.527886343769053
 30
0.0
  0
POINT
  5
D857
330
D76F
100
AcDbEntity
  8
Defpoints
 62
     0
100
AcDbPoint
 10
6.155608863494436
 20
1.967533910200741
 30
0.0
  0
POINT
  5
D858
330
D76F
100
AcDbEntity
  8
Defpoints
 62
     0
100
AcDbPoint
 10
6.547265350953776
 20
1.967533910200741
 30
0.0
  0
ENDBLK
  5
D771
330
D76F
100
AcDbEntity
  8
0
100
AcDbBlockEnd
  0
ENDSEC
  0
SECTION
  2
ENTITIES
  0
LINE
  5
D17E
330
1F
100
AcDbEntity
  8
NETAFIM-L-DETL-013M
100
AcDbLine
 10
5.278728623686477
 20
3.903293910200742
 30
0.0
 11
4.937765255265427
 21
3.903293910200742
 31
0.0
  0
LINE
  5
D17F
330
1F
100
AcDbEntity
  8
NETAFIM-L-DETL-013M
100
AcDbLine
 10
5.291735082851625
 20
4.014413910200741
 30
0.0
 11
4.928766321184079
 21
4.014413910200741
 31
0.0
  0
LWPOLYLINE
  5
D180
330
1F
100
AcDbEntity
  8
NETAFIM-L-DETL-035M
100
AcDbPolyline
 90
        4
 70
     1
 43
0.0
 10
5.257205255265427
 20
4.438413910200742
 10
4.973845255265425
 20
4.438413910200742
 10
4.973845255265425
 20
4.155053910200737
 10
5.257205255265427
 20
4.155053910200737
  0
LINE
  5
D181
330
1F
100
AcDbEntity
  8
NETAFIM-L-DETL-013M
100
AcDbLine
 10
5.229445255265426
 20
4.155053910200737
 30
0.0
 11
5.229445255265426
 21
4.114413910200741
 31
0.0
  0
LWPOLYLINE
  5
D182
330
1F
100
AcDbEntity
  8
NETAFIM-L-DETL-013M
100
AcDbPolyline
 90
        2
 70
     0
 43
0.0
 10
5.001605255265426
 20
4.155053910200737
 10
5.001605255265426
 20
4.114413910200741
  0
LWPOLYLINE
  5
D183
330
1F
100
AcDbEntity
  8
NETAFIM-L-DETL-025M
100
AcDbPolyline
 90
       14
 70
     0
 43
0.0
 10
5.254405255265426
 20
3.311327301019699
 10
5.254405255265426
 20
3.863453910200738
 10
5.282245255265431
 20
3.909053910200738
 10
5.254405255265426
 20
3.94313391020074
 10
5.293285255265418
 20
4.017373910200737
 10
5.254405255265426
 20
4.068733910200736
 10
5.254405255265426
 20
4.114413910200741
 10
4.971125255265421
 20
4.114413910200741
 10
4.971125255265421
 20
4.068733910200736
 10
4.926645255265421
 20
4.011693910200741
 10
4.965525255265427
 20
3.948893910200736
 10
4.937765255265427
 20
3.903293910200742
 10
4.965525255265427
 20
3.857773910200736
 10
4.965525255265427
 20
3.311327301019699
  0
ARC
  5
D1BD
330
1F
100
AcDbEntity
  8
NETAFIM-L-DETL-025M
100
AcDbCircle
 10
5.115525255265419
 20
4.071297932963951
 30
0.0
 40
0.1645851941180865
100
AcDbArc
 50
30.59000952887493
 51
149.4099904711239
  0
LINE
  5
D1BE
330
1F
100
AcDbEntity
  8
NETAFIM-L-DETL-013M
100
AcDbLine
 10
4.722085255265421
 20
4.459937278621796
 30
0.0
 11
4.722085255265421
 21
4.118973910200744
 31
0.0
  0
LINE
  5
D1BF
330
1F
100
AcDbEntity
  8
NETAFIM-L-DETL-013M
100
AcDbLine
 10
4.833205255265427
 20
4.472943737786946
 30
0.0
 11
4.833205255265427
 21
4.109974976119391
 31
0.0
  0
LINE
  5
D1C0
330
1F
100
AcDbEntity
  8
NETAFIM-L-DETL-013M
100
AcDbLine
 10
4.973845255265425
 20
4.410653910200742
 30
0.0
 11
4.933205255265429
 21
4.410653910200742
 31
0.0
  0
LWPOLYLINE
  5
D1C1
330
1F
100
AcDbEntity
  8
NETAFIM-L-DETL-013M
100
AcDbPolyline
 90
        2
 70
     0
 43
0.0
 10
4.973845255265425
 20
4.182813910200743
 10
4.933205255265429
 20
4.182813910200743
  0
LWPOLYLINE
  5
D1C2
330
1F
100
AcDbEntity
  8
NETAFIM-L-DETL-025M
100
AcDbPolyline
 90
       14
 70
     0
 43
0.0
 10
4.130118646084378
 20
4.43561391020074
 10
4.682245255265415
 20
4.43561391020074
 10
4.727845255265416
 20
4.463453910200743
 10
4.761925255265426
 20
4.43561391020074
 10
4.836165255265422
 20
4.474493910200741
 10
4.887525255265424
 20
4.43561391020074
 10
4.933205255265429
 20
4.43561391020074
 10
4.933205255265429
 20
4.152333910200744
 10
4.887525255265424
 20
4.152333910200744
 10
4.830485255265424
 20
4.107853910200739
 10
4.767685255265421
 20
4.146733910200745
 10
4.722085255265421
 20
4.118973910200744
 10
4.676565255265424
 20
4.146733910200745
 10
4.130118646084378
 20
4.146733910200745
  0
LWPOLYLINE
  5
D1C3
330
1F
100
AcDbEntity
  8
NETAFIM-L-DETL-025M
100
AcDbPolyline
 90
        2
 70
     0
 43
0.0
 10
4.141556638647402
 20
4.292085420340666
 42
0.9234788939173826
 10
4.130118646084378
 20
4.435613910200735
 42
0.7577336477529588
  0
LWPOLYLINE
  5
D1C4
330
1F
100
AcDbEntity
  8
NETAFIM-L-DETL-025M
100
AcDbPolyline
 90
        2
 70
     0
 43
0.0
 10
4.130118646084378
 20
4.43561391020074
 42
1.08286178123388
 10
4.141556638647402
 20
4.292085420340666
  0
LWPOLYLINE
  5
D1C5
330
1F
100
AcDbEntity
  8
NETAFIM-L-DETL-025M
100
AcDbPolyline
 90
        2
 70
     0
 43
0.0
 10
4.1301186460843
 20
4.291173910200753
 42
1.0
 10
4.130118646084378
 20
4.146733910200745
 42
119.3879369671607
  0
LINE
  5
D1E3
330
1F
100
AcDbEntity
  8
NETAFIM-L-DETL-013M
100
AcDbLine
 10
4.96606543427911
 20
2.215220879144388
 30
0.0
 11
5.251394163276033
 21
2.241129364968675
 31
0.0
  0
LINE
  5
D1E4
330
1F
100
AcDbEntity
  8
NETAFIM-L-DETL-013M
100
AcDbLine
 10
4.976039746643872
 20
2.251485380176446
 30
0.0
 11
5.252325255265427
 21
2.276653910200741
 31
0.0
  0
LINE
  5
D1E5
330
1F
100
AcDbEntity
  8
NETAFIM-L-DETL-013M
100
AcDbLine
 10
4.978397440958852
 20
2.287140156913925
 30
0.0
 11
5.252325255265427
 21
2.312093910200743
 31
0.0
  0
LINE
  5
D1E6
330
1F
100
AcDbEntity
  8
NETAFIM-L-DETL-013M
100
AcDbLine
 10
4.971311273973961
 20
2.23341268768559
 30
0.0
 11
5.244005255265429
 21
2.258173910200741
 31
0.0
  0
LINE
  5
D1E7
330
1F
100
AcDbEntity
  8
NETAFIM-L-DETL-013M
100
AcDbLine
 10
4.969432330183098
 20
2.26860138984355
 30
0.0
 11
5.242330826406247
 21
2.294952275436858
 31
0.0
  0
LINE
  5
D1E8
330
1F
100
AcDbEntity
  8
NETAFIM-L-DETL-013M
100
AcDbLine
 10
4.968999545208342
 20
2.303921964823811
 30
0.0
 11
5.183409900426712
 21
2.323453910200741
 31
0.0
  0
LWPOLYLINE
  5
D1EA
330
1F
100
AcDbEntity
  8
NETAFIM-L-DETL-025M
100
AcDbPolyline
 90
        4
 70
     1
 43
0.0
 10
4.948165255265431
 20
2.373453910200741
 10
5.273125255265428
 20
2.373453910200741
 10
5.273125255265428
 20
2.323453910200741
 10
4.948165255265431
 20
2.323453910200741
  0
LWPOLYLINE
  5
D1EB
330
1F
100
AcDbEntity
  8
NETAFIM-L-DETL-025M
100
AcDbPolyline
 90
        4
 70
     1
 43
0.0
 10
4.948165255265431
 20
2.473453910200741
 10
5.273125255265428
 20
2.473453910200741
 10
5.273125255265428
 20
2.42345391020074
 10
4.948165255265431
 20
2.42345391020074
  0
LINE
  5
D1EC
330
1F
100
AcDbEntity
  8
NETAFIM-L-DETL-013M
100
AcDbLine
 10
5.03704525526542
 20
2.473453910200741
 30
0.0
 11
5.03704525526542
 21
2.42345391020074
 31
0.0
  0
LINE
  5
D1ED
330
1F
100
AcDbEntity
  8
NETAFIM-L-DETL-013M
100
AcDbLine
 10
5.187045255265426
 20
2.473453910200741
 30
0.0
 11
5.187045255265426
 21
2.42345391020074
 31
0.0
  0
LINE
  5
D1EE
330
1F
100
AcDbEntity
  8
NETAFIM-L-DETL-013M
100
AcDbLine
 10
5.03704525526542
 20
2.373453910200741
 30
0.0
 11
5.03704525526542
 21
2.323453910200741
 31
0.0
  0
LINE
  5
D1EF
330
1F
100
AcDbEntity
  8
NETAFIM-L-DETL-013M
100
AcDbLine
 10
5.187045255265426
 20
2.373453910200741
 30
0.0
 11
5.187045255265426
 21
2.323453910200741
 31
0.0
  0
LWPOLYLINE
  5
D1F8
102
{ACAD_REACTORS
330
D763
330
D787
102
}
330
1F
100
AcDbEntity
  8
NETAFIM-L-DETL-035M
100
AcDbPolyline
 90
       11
 70
     0
 43
0.0
 10
2.796085255265426
 20
5.522413910200742
 10
3.184965255265426
 20
5.534813910200742
 10
3.55160525526543
 20
5.553293910200742
 10
3.940485255265423
 20
5.516253910200743
 10
4.340485255265422
 20
5.497773910200742
 10
4.729365255265422
 20
5.497773910200742
 10
5.151605255265431
 20
5.516253910200743
 10
5.607205255265428
 20
5.528573910200742
 10
6.09608525526543
 20
5.528573910200742
 10
6.629365255265421
 20
5.522413910200742
 10
7.062725255265428
 20
5.534813910200742
  0
LWPOLYLINE
  5
D20A
102
{ACAD_REACTORS
330
D787
102
}
330
1F
100
AcDbEntity
  8
NETAFIM-L-DETL-035M
100
AcDbPolyline
 90
        2
 70
     0
 43
0.0
 10
6.759079036351318
 20
1.967533910200741
 10
5.614085255265431
 20
1.967533910200741
  0
LWPOLYLINE
  5
D20B
330
1F
100
AcDbEntity
  8
NETAFIM-L-DETL-035M
100
AcDbPolyline
 90
        2
 70
     0
 43
0.0
 10
6.759079036351318
 20
1.628493910200741
 10
5.608085255265431
 20
1.628493910200741
  0
LWPOLYLINE
  5
D20C
330
1F
100
AcDbEntity
  8
NETAFIM-L-DETL-035M
100
AcDbPolyline
 90
        2
 70
     0
 43
0.0
 10
3.577443579144444
 20
1.629229531731335
 42
116.1466259647425
 10
3.574551148095197
 20
1.628837686703259
 42
116.1466259647425
  0
LWPOLYLINE
  5
D20D
330
1F
100
AcDbEntity
  8
NETAFIM-L-DETL-035M
100
AcDbPolyline
 90
        2
 70
     0
 43
0.0
 10
6.771902277926495
 20
1.798989531731336
 42
116.1466259647425
 10
6.769009846877247
 20
1.798597686703259
 42
116.1466259647425
  0
LWPOLYLINE
  5
D20E
330
1F
100
AcDbEntity
  8
NETAFIM-L-DETL-035M
100
AcDbPolyline
 90
        2
 70
     0
 43
0.0
 10
6.771902277926495
 20
1.629469531731335
 42
0.9268077950077186
 10
6.759079036351318
 20
1.798013910200761
 42
116.1466259647425
  0
LWPOLYLINE
  5
D20F
330
1F
100
AcDbEntity
  8
NETAFIM-L-DETL-035M
100
AcDbPolyline
 90
        2
 70
     0
 43
0.0
 10
3.564620337569268
 20
1.967293910200742
 42
1.060510687631998
 10
3.574551148095197
 20
1.798357686703259
 42
116.1466259647425
  0
LWPOLYLINE
  5
D213
330
1F
100
AcDbEntity
  8
NETAFIM-L-DETL-025M
100
AcDbPolyline
 90
        2
 70
     1
 43
0.0092114599490881
 10
3.314366608781854
 20
1.739307481443801
 42
1.0
 10
3.32357806873094
 20
1.739307481443801
 42
1.0
  0
LWPOLYLINE
  5
D225
330
1F
100
AcDbEntity
  8
NETAFIM-L-DETL-025M
100
AcDbPolyline
 90
        2
 70
     1
 43
0.0092114599490881
 10
5.520216606931578
 20
4.008499320575778
 42
1.0
 10
5.529428066880663
 20
4.008499320575778
 42
1.0
  0
LWPOLYLINE
  5
D226
330
1F
100
AcDbEntity
  8
NETAFIM-L-DETL-025M
100
AcDbPolyline
 90
        2
 70
     1
 43
0.0092114599490881
 10
5.619176084897157
 20
3.876554979456931
 42
1.0
 10
5.628387544846249
 20
3.876554979456931
 42
1.0
  0
LWPOLYLINE
  5
D227
330
1F
100
AcDbEntity
  8
NETAFIM-L-DETL-025M
100
AcDbPolyline
 90
        2
 70
     1
 43
0.0092114599490881
 10
5.388594033297623
 20
3.667966499011694
 42
1.0
 10
5.397805493246709
 20
3.667966499011694
 42
1.0
  0
LWPOLYLINE
  5
D228
330
1F
100
AcDbEntity
  8
NETAFIM-L-DETL-025M
100
AcDbPolyline
 90
        2
 70
     1
 43
0.0092114599490881
 10
5.619176084897157
 20
3.40440120976694
 42
1.0
 10
5.628387544846249
 20
3.40440120976694
 42
1.0
  0
LWPOLYLINE
  5
D229
330
1F
100
AcDbEntity
  8
NETAFIM-L-DETL-025M
100
AcDbPolyline
 90
        2
 70
     1
 43
0.0092114599490881
 10
5.498225611828113
 20
3.305766346920743
 42
1.0
 10
5.507437071777205
 20
3.305766346920743
 42
1.0
  0
LWPOLYLINE
  5
D22A
330
1F
100
AcDbEntity
  8
NETAFIM-L-DETL-025M
100
AcDbPolyline
 90
        2
 70
     1
 43
0.0092114599490881
 10
5.674153572655812
 20
3.250789538121224
 42
1.0
 10
5.683365032604898
 20
3.250789538121224
 42
1.0
  0
LWPOLYLINE
  5
D22B
330
1F
100
AcDbEntity
  8
NETAFIM-L-DETL-025M
100
AcDbPolyline
 90
        2
 70
     1
 43
0.0092114599490881
 10
5.794780648738035
 20
3.62398505197208
 42
1.0
 10
5.80399210868712
 20
3.62398505197208
 42
1.0
  0
LWPOLYLINE
  5
D22C
330
1F
100
AcDbEntity
  8
NETAFIM-L-DETL-025M
100
AcDbPolyline
 90
        2
 70
     1
 43
0.0092114599490881
 10
5.685149070207538
 20
3.689957222531503
 42
1.0
 10
5.694360530156631
 20
3.689957222531503
 42
1.0
  0
LWPOLYLINE
  5
D22D
330
1F
100
AcDbEntity
  8
NETAFIM-L-DETL-025M
100
AcDbPolyline
 90
        2
 70
     1
 43
0.0092114599490881
 10
5.476558013711469
 20
2.866598662510464
 42
1.0
 10
5.485769473660562
 20
2.866598662510464
 42
1.0
  0
LWPOLYLINE
  5
D22E
330
1F
100
AcDbEntity
  8
NETAFIM-L-DETL-025M
100
AcDbPolyline
 90
        2
 70
     1
 43
0.0092114599490881
 10
5.520216606931578
 20
2.723658959631714
 42
1.0
 10
5.529428066880663
 20
2.723658959631714
 42
1.0
  0
LWPOLYLINE
  5
D22F
330
1F
100
AcDbEntity
  8
NETAFIM-L-DETL-025M
100
AcDbPolyline
 90
        2
 70
     1
 43
0.0092114599490881
 10
5.454567018608011
 20
2.460417063379897
 42
1.0
 10
5.463778478557097
 20
2.460417063379897
 42
1.0
  0
LWPOLYLINE
  5
D230
330
1F
100
AcDbEntity
  8
NETAFIM-L-DETL-025M
100
AcDbPolyline
 90
        2
 70
     1
 43
0.0092114599490881
 10
5.498225611828113
 20
2.251828582934661
 42
1.0
 10
5.507437071777205
 20
2.251828582934661
 42
1.0
  0
LWPOLYLINE
  5
D231
330
1F
100
AcDbEntity
  8
NETAFIM-L-DETL-025M
100
AcDbPolyline
 90
        2
 70
     1
 43
0.0092114599490881
 10
5.729131060414468
 20
2.130879603575718
 42
1.0
 10
5.738342520363554
 20
2.130879603575718
 42
1.0
  0
LWPOLYLINE
  5
D232
330
1F
100
AcDbEntity
  8
NETAFIM-L-DETL-025M
100
AcDbPolyline
 90
        2
 70
     1
 43
0.0092114599490881
 10
5.729131060414468
 20
2.745649683151522
 42
1.0
 10
5.738342520363554
 20
2.745649683151522
 42
1.0
  0
LWPOLYLINE
  5
D233
330
1F
100
AcDbEntity
  8
NETAFIM-L-DETL-025M
100
AcDbPolyline
 90
        2
 70
     1
 43
0.0092114599490881
 10
5.707140065311003
 20
2.427430978100185
 42
1.0
 10
5.716351525260089
 20
2.427430978100185
 42
1.0
  0
LWPOLYLINE
  5
D234
330
1F
100
AcDbEntity
  8
NETAFIM-L-DETL-025M
100
AcDbPolyline
 90
        2
 70
     1
 43
0.0092114599490881
 10
5.333616545538967
 20
3.10817322823541
 42
1.0
 10
5.34282800548806
 20
3.10817322823541
 42
1.0
  0
LWPOLYLINE
  5
D235
330
1F
100
AcDbEntity
  8
NETAFIM-L-DETL-025M
100
AcDbPolyline
 90
        2
 70
     1
 43
0.0092114599490881
 10
5.432576023504546
 20
3.722943307811214
 42
1.0
 10
5.441787483453632
 20
3.722943307811214
 42
1.0
  0
LWPOLYLINE
  5
D236
330
1F
100
AcDbEntity
  8
NETAFIM-L-DETL-025M
100
AcDbPolyline
 90
        2
 70
     1
 43
0.0092114599490881
 10
6.058672589979581
 20
3.305766346920743
 42
1.0
 10
6.067884049928666
 20
3.305766346920743
 42
1.0
  0
LWPOLYLINE
  5
D237
330
1F
100
AcDbEntity
  8
NETAFIM-L-DETL-025M
100
AcDbPolyline
 90
        2
 70
     1
 43
0.0092114599490881
 10
6.245272651372184
 20
2.69099626734494
 42
1.0
 10
6.254484111321277
 20
2.69099626734494
 42
1.0
  0
LWPOLYLINE
  5
D238
330
1F
100
AcDbEntity
  8
NETAFIM-L-DETL-025M
100
AcDbPolyline
 90
        2
 70
     1
 43
0.0092114599490881
 10
6.420877215213069
 20
2.449421701619992
 42
1.0
 10
6.430088675162155
 20
2.449421701619992
 42
1.0
  0
LWPOLYLINE
  5
D239
330
1F
100
AcDbEntity
  8
NETAFIM-L-DETL-025M
100
AcDbPolyline
 90
        2
 70
     1
 43
0.0092114599490881
 10
6.157308670958345
 20
2.932570833069887
 42
1.0
 10
6.16652013090743
 20
2.932570833069887
 42
1.0
  0
LWPOLYLINE
  5
D23A
330
1F
100
AcDbEntity
  8
NETAFIM-L-DETL-025M
100
AcDbPolyline
 90
        2
 70
     1
 43
0.0092114599490881
 10
7.046973781688096
 20
2.625024096785517
 42
1.0
 10
7.056185241637189
 20
2.625024096785517
 42
1.0
  0
LWPOLYLINE
  5
D23B
330
1F
100
AcDbEntity
  8
NETAFIM-L-DETL-025M
100
AcDbPolyline
 90
        2
 70
     1
 43
0.0092114599490881
 10
7.288874727826177
 20
3.810906201890445
 42
1.0
 10
7.298086187775263
 20
3.810906201890445
 42
1.0
  0
LWPOLYLINE
  5
D23C
330
1F
100
AcDbEntity
  8
NETAFIM-L-DETL-025M
100
AcDbPolyline
 90
        2
 70
     1
 43
0.0092114599490881
 10
7.013987289032906
 20
4.502643813785575
 42
1.0
 10
7.023198748981998
 20
4.502643813785575
 42
1.0
  0
LWPOLYLINE
  5
D23D
330
1F
100
AcDbEntity
  8
NETAFIM-L-DETL-025M
100
AcDbPolyline
 90
        2
 70
     1
 43
0.0092114599490881
 10
6.84937822274376
 20
5.073432446321764
 42
1.0
 10
6.858589682692846
 20
5.073432446321764
 42
1.0
  0
LWPOLYLINE
  5
D23E
330
1F
100
AcDbEntity
  8
NETAFIM-L-DETL-025M
100
AcDbPolyline
 90
        2
 70
     1
 43
0.0092114599490881
 10
6.618796171144227
 20
5.029450999282148
 42
1.0
 10
6.628007631093312
 20
5.029450999282148
 42
1.0
  0
LWPOLYLINE
  5
D23F
330
1F
100
AcDbEntity
  8
NETAFIM-L-DETL-025M
100
AcDbPolyline
 90
        2
 70
     1
 43
0.0092114599490881
 10
6.728427749674716
 20
4.590283314871869
 42
1.0
 10
6.737639209623809
 20
4.590283314871869
 42
1.0
  0
LWPOLYLINE
  5
D240
330
1F
100
AcDbEntity
  8
NETAFIM-L-DETL-025M
100
AcDbPolyline
 90
        2
 70
     1
 43
0.0092114599490881
 10
6.289254641579114
 20
5.106418531601478
 42
1.0
 10
6.2984661015282
 20
5.106418531601478
 42
1.0
  0
LWPOLYLINE
  5
D241
330
1F
100
AcDbEntity
  8
NETAFIM-L-DETL-025M
100
AcDbPolyline
 90
        2
 70
     1
 43
0.0092114599490881
 10
6.311245636682579
 20
4.820862518836912
 42
1.0
 10
6.320457096631665
 20
4.820862518836912
 42
1.0
  0
LWPOLYLINE
  5
D242
330
1F
100
AcDbEntity
  8
NETAFIM-L-DETL-025M
100
AcDbPolyline
 90
        2
 70
     1
 43
0.0092114599490881
 10
6.146313173406612
 20
4.656255485431294
 42
1.0
 10
6.155524633355698
 20
4.656255485431294
 42
1.0
  0
LWPOLYLINE
  5
D243
330
1F
100
AcDbEntity
  8
NETAFIM-L-DETL-025M
100
AcDbPolyline
 90
        2
 70
     1
 43
0.0092114599490881
 10
5.366603038194158
 20
5.282020926767001
 42
1.0
 10
5.375814498143251
 20
5.282020926767001
 42
1.0
  0
LWPOLYLINE
  5
D244
330
1F
100
AcDbEntity
  8
NETAFIM-L-DETL-025M
100
AcDbPolyline
 90
        2
 70
     1
 43
0.0092114599490881
 10
4.806479457029512
 20
5.260030203247191
 42
1.0
 10
4.815690916978605
 20
5.260030203247191
 42
1.0
  0
LWPOLYLINE
  5
D245
330
1F
100
AcDbEntity
  8
NETAFIM-L-DETL-025M
100
AcDbPolyline
 90
        2
 70
     1
 43
0.0092114599490881
 10
4.685528983960475
 20
5.194058032687769
 42
1.0
 10
4.694740443909561
 20
5.194058032687769
 42
1.0
  0
LWPOLYLINE
  5
D246
330
1F
100
AcDbEntity
  8
NETAFIM-L-DETL-025M
100
AcDbPolyline
 90
        2
 70
     1
 43
0.0092114599490881
 10
5.147016484146357
 20
5.073432446321764
 42
1.0
 10
5.156227944095443
 20
5.073432446321764
 42
1.0
  0
LWPOLYLINE
  5
D247
330
1F
100
AcDbEntity
  8
NETAFIM-L-DETL-025M
100
AcDbPolyline
 90
        2
 70
     1
 43
0.0092114599490881
 10
5.311625550435509
 20
4.97447419048263
 42
1.0
 10
5.320837010384595
 20
4.97447419048263
 42
1.0
  0
LWPOLYLINE
  5
D248
330
1F
100
AcDbEntity
  8
NETAFIM-L-DETL-025M
100
AcDbPolyline
 90
        2
 70
     1
 43
0.0
 10
5.355607540642433
 20
4.667250847191197
 42
1.0
 10
5.364819000591518
 20
4.667250847191197
 42
1.0
  0
LWPOLYLINE
  5
D249
330
1F
100
AcDbEntity
  8
NETAFIM-L-DETL-025M
100
AcDbPolyline
 90
        2
 70
     1
 43
0.0092114599490881
 10
3.246735789617803
 20
4.239078524540821
 42
1.0
 10
3.255947249566888
 20
4.239078524540821
 42
1.0
  0
LWPOLYLINE
  5
D24A
330
1F
100
AcDbEntity
  8
NETAFIM-L-DETL-025M
100
AcDbPolyline
 90
        2
 70
     1
 43
0.0092114599490881
 10
3.685908897713412
 20
4.272064609820533
 42
1.0
 10
3.695120357662498
 20
4.272064609820533
 42
1.0
  0
LWPOLYLINE
  5
D24B
330
1F
100
AcDbEntity
  8
NETAFIM-L-DETL-025M
100
AcDbPolyline
 90
        2
 70
     1
 43
0.0092114599490881
 10
3.795863873230716
 20
4.184101715741301
 42
1.0
 10
3.805075333179802
 20
4.184101715741301
 42
1.0
  0
LWPOLYLINE
  5
D24C
330
1F
100
AcDbEntity
  8
NETAFIM-L-DETL-025M
100
AcDbPolyline
 90
        2
 70
     1
 43
0.0092114599490881
 10
3.718895390368603
 20
4.052480767615391
 42
1.0
 10
3.728106850317688
 20
4.052480767615391
 42
1.0
  0
LWPOLYLINE
  5
D24D
330
1F
100
AcDbEntity
  8
NETAFIM-L-DETL-025M
100
AcDbPolyline
 90
        2
 70
     1
 43
0.0092114599490881
 10
3.367362865700032
 20
4.052480767615391
 42
1.0
 10
3.376574325649118
 20
4.052480767615391
 42
1.0
  0
LWPOLYLINE
  5
D24E
330
1F
100
AcDbEntity
  8
NETAFIM-L-DETL-025M
100
AcDbPolyline
 90
        2
 70
     1
 43
0.0092114599490881
 10
3.389353860803483
 20
3.865559617697027
 42
1.0
 10
3.398565320752583
 20
3.865559617697027
 42
1.0
  0
LWPOLYLINE
  5
D24F
330
1F
100
AcDbEntity
  8
NETAFIM-L-DETL-025M
100
AcDbPolyline
 90
        2
 70
     1
 43
0.0092114599490881
 10
4.004454929726792
 20
3.887550341216834
 42
1.0
 10
4.013666389675877
 20
3.887550341216834
 42
1.0
  0
LWPOLYLINE
  5
D250
330
1F
100
AcDbEntity
  8
NETAFIM-L-DETL-025M
100
AcDbPolyline
 90
        2
 70
     1
 43
0.0092114599490881
 10
4.443951434809216
 20
3.854564255937122
 42
1.0
 10
4.453162894758301
 20
3.854564255937122
 42
1.0
  0
LWPOLYLINE
  5
D251
330
1F
100
AcDbEntity
  8
NETAFIM-L-DETL-025M
100
AcDbPolyline
 90
        2
 70
     1
 43
0.0092114599490881
 10
4.509924420119597
 20
3.711947946051309
 42
1.0
 10
4.519135880068683
 20
3.711947946051309
 42
1.0
  0
LWPOLYLINE
  5
D252
330
1F
100
AcDbEntity
  8
NETAFIM-L-DETL-025M
100
AcDbPolyline
 90
        2
 70
     1
 43
0.0092114599490881
 10
4.213369383209675
 20
3.667966499011694
 42
1.0
 10
4.222580843158768
 20
3.667966499011694
 42
1.0
  0
LWPOLYLINE
  5
D253
330
1F
100
AcDbEntity
  8
NETAFIM-L-DETL-025M
100
AcDbPolyline
 90
        2
 70
     1
 43
0.0092114599490881
 10
4.542910912774788
 20
3.349747793960358
 42
1.0
 10
4.552122372723873
 20
3.349747793960358
 42
1.0
  0
LWPOLYLINE
  5
D254
330
1F
100
AcDbEntity
  8
NETAFIM-L-DETL-025M
100
AcDbPolyline
 90
        2
 70
     1
 43
0.0092114599490881
 10
4.828470452132977
 20
3.228798814601415
 42
1.0
 10
4.837681912082063
 20
3.228798814601415
 42
1.0
  0
LWPOLYLINE
  5
D255
330
1F
100
AcDbEntity
  8
NETAFIM-L-DETL-025M
100
AcDbPolyline
 90
        2
 70
     1
 43
0.0092114599490881
 10
4.66353798885701
 20
3.064191781195796
 42
1.0
 10
4.672749448806102
 20
3.064191781195796
 42
1.0
  0
LWPOLYLINE
  5
D256
330
1F
100
AcDbEntity
  8
NETAFIM-L-DETL-025M
100
AcDbPolyline
 90
        2
 70
     1
 43
0.0092114599490881
 10
4.355987454395362
 20
2.965233525356661
 42
1.0
 10
4.365198914344448
 20
2.965233525356661
 42
1.0
  0
LWPOLYLINE
  5
D257
330
1F
100
AcDbEntity
  8
NETAFIM-L-DETL-025M
100
AcDbPolyline
 90
        2
 70
     1
 43
0.0092114599490881
 10
4.597565003546629
 20
3.316761708680647
 42
1.0
 10
4.606776463495714
 20
3.316761708680647
 42
1.0
  0
LWPOLYLINE
  5
D258
330
1F
100
AcDbEntity
  8
NETAFIM-L-DETL-025M
100
AcDbPolyline
 90
        2
 70
     1
 43
0.0092114599490881
 10
4.147396397899294
 20
3.393405848007035
 42
1.0
 10
4.15660785784838
 20
3.393405848007035
 42
1.0
  0
LWPOLYLINE
  5
D259
330
1F
100
AcDbEntity
  8
NETAFIM-L-DETL-025M
100
AcDbPolyline
 90
        2
 70
     1
 43
0.0092114599490881
 10
4.509924420119597
 20
2.932570833069887
 42
1.0
 10
4.519135880068683
 20
2.932570833069887
 42
1.0
  0
LWPOLYLINE
  5
D25A
330
1F
100
AcDbEntity
  8
NETAFIM-L-DETL-025M
100
AcDbPolyline
 90
        2
 70
     1
 43
0.0092114599490881
 10
3.70789989281687
 20
1.450137353440491
 42
1.0
 10
3.717111352765963
 20
1.450137353440491
 42
1.0
  0
LWPOLYLINE
  5
D25B
330
1F
100
AcDbEntity
  8
NETAFIM-L-DETL-025M
100
AcDbPolyline
 90
        2
 70
     1
 43
0.0092114599490881
 10
3.587272816734641
 20
1.340507128834389
 42
1.0
 10
3.596484276683741
 20
1.340507128834389
 42
1.0
  0
LWPOLYLINE
  5
D25C
330
1F
100
AcDbEntity
  8
NETAFIM-L-DETL-025M
100
AcDbPolyline
 90
        2
 70
     1
 43
0.0092114599490881
 10
3.158771809203956
 20
1.450137353440491
 42
1.0
 10
3.167983269153042
 20
1.450137353440491
 42
1.0
  0
LWPOLYLINE
  5
D25D
330
1F
100
AcDbEntity
  8
NETAFIM-L-DETL-025M
100
AcDbPolyline
 90
        2
 70
     1
 43
0.0092114599490881
 10
3.23574029206607
 20
1.680716557405534
 42
1.0
 10
3.244951752015163
 20
1.680716557405534
 42
1.0
  0
LWPOLYLINE
  5
D25E
330
1F
100
AcDbEntity
  8
NETAFIM-L-DETL-025M
100
AcDbPolyline
 90
        2
 70
     1
 43
0.0092114599490881
 10
3.334699770031649
 20
1.845323590811154
 42
1.0
 10
3.343911229980735
 20
1.845323590811154
 42
1.0
  0
LWPOLYLINE
  5
D25F
330
1F
100
AcDbEntity
  8
NETAFIM-L-DETL-025M
100
AcDbPolyline
 90
        2
 70
     1
 43
0.0092114599490881
 10
3.378358363251765
 20
2.010254017209713
 42
1.0
 10
3.38756982320085
 20
2.010254017209713
 42
1.0
  0
LWPOLYLINE
  5
D260
330
1F
100
AcDbEntity
  8
NETAFIM-L-DETL-025M
100
AcDbPolyline
 90
        2
 70
     1
 43
0.0092114599490881
 10
3.400349358355216
 20
1.713702642685247
 42
1.0
 10
3.409560818304315
 20
1.713702642685247
 42
1.0
  0
LWPOLYLINE
  5
D261
330
1F
100
AcDbEntity
  8
NETAFIM-L-DETL-025M
100
AcDbPolyline
 90
        2
 70
     1
 43
0.0092114599490881
 10
3.444331348562146
 20
1.680716557405534
 42
1.0
 10
3.453542808511231
 20
1.680716557405534
 42
1.0
  0
LWPOLYLINE
  5
D262
330
1F
100
AcDbEntity
  8
NETAFIM-L-DETL-025M
100
AcDbPolyline
 90
        2
 70
     1
 43
0.0092114599490881
 10
3.663917902609947
 20
1.406155906400875
 42
1.0
 10
3.673129362559032
 20
1.406155906400875
 42
1.0
  0
LWPOLYLINE
  5
D263
330
1F
100
AcDbEntity
  8
NETAFIM-L-DETL-025M
100
AcDbPolyline
 90
        2
 70
     1
 43
0.0092114599490881
 10
4.23536037831314
 20
1.41715126816078
 42
1.0
 10
4.244571838262226
 20
1.41715126816078
 42
1.0
  0
LWPOLYLINE
  5
D264
330
1F
100
AcDbEntity
  8
NETAFIM-L-DETL-025M
100
AcDbPolyline
 90
        2
 70
     1
 43
0.0092114599490881
 10
4.52091991767133
 20
1.351502490594294
 42
1.0
 10
4.530131377620415
 20
1.351502490594294
 42
1.0
  0
LWPOLYLINE
  5
D265
330
1F
100
AcDbEntity
  8
NETAFIM-L-DETL-025M
100
AcDbPolyline
 90
        2
 70
     1
 43
0.0092114599490881
 10
5.15801198169809
 20
1.307521043554678
 42
1.0
 10
5.167223441647175
 20
1.307521043554678
 42
1.0
  0
LWPOLYLINE
  5
D266
330
1F
100
AcDbEntity
  8
NETAFIM-L-DETL-025M
100
AcDbPolyline
 90
        2
 70
     1
 43
0.0092114599490881
 10
5.553203099586776
 20
1.450137353440491
 42
1.0
 10
5.562414559535861
 20
1.450137353440491
 42
1.0
  0
LWPOLYLINE
  5
D267
330
1F
100
AcDbEntity
  8
NETAFIM-L-DETL-025M
100
AcDbPolyline
 90
        2
 70
     1
 43
0.0092114599490881
 10
4.905115538008276
 20
1.41715126816078
 42
1.0
 10
4.914326997957369
 20
1.41715126816078
 42
1.0
  0
LWPOLYLINE
  5
D268
330
1F
100
AcDbEntity
  8
NETAFIM-L-DETL-025M
100
AcDbPolyline
 90
        2
 70
     1
 43
0.0092114599490881
 10
4.421960439705751
 20
1.296525681794775
 42
1.0
 10
4.431171899654836
 20
1.296525681794775
 42
1.0
  0
LWPOLYLINE
  5
D269
330
1F
100
AcDbEntity
  8
NETAFIM-L-DETL-025M
100
AcDbPolyline
 90
        2
 70
     1
 43
0.0092114599490881
 10
3.993459432175059
 20
1.439141991680586
 42
1.0
 10
4.002670892124152
 20
1.439141991680586
 42
1.0
  0
LWPOLYLINE
  5
D26A
330
1F
100
AcDbEntity
  8
NETAFIM-L-DETL-025M
100
AcDbPolyline
 90
        2
 70
     1
 43
0.0092114599490881
 10
5.454567018608011
 20
1.384165182881067
 42
1.0
 10
5.463778478557097
 20
1.384165182881067
 42
1.0
  0
LWPOLYLINE
  5
D26B
330
1F
100
AcDbEntity
  8
NETAFIM-L-DETL-025M
100
AcDbPolyline
 90
        2
 70
     1
 43
0.0092114599490881
 10
6.157308670958345
 20
1.384165182881067
 42
1.0
 10
6.16652013090743
 20
1.384165182881067
 42
1.0
  0
LWPOLYLINE
  5
D26C
330
1F
100
AcDbEntity
  8
NETAFIM-L-DETL-025M
100
AcDbPolyline
 90
        2
 70
     1
 43
0.0092114599490881
 10
6.728427749674716
 20
1.19756742595564
 42
1.0
 10
6.737639209623809
 20
1.19756742595564
 42
1.0
  0
LWPOLYLINE
  5
D26D
330
1F
100
AcDbEntity
  8
NETAFIM-L-DETL-025M
100
AcDbPolyline
 90
        2
 70
     1
 43
0.0092114599490881
 10
7.013987289032906
 20
1.483123438720203
 42
1.0
 10
7.023198748981998
 20
1.483123438720203
 42
1.0
  0
LWPOLYLINE
  5
D26E
330
1F
100
AcDbEntity
  8
NETAFIM-L-DETL-025M
100
AcDbPolyline
 90
        2
 70
     1
 43
0.0092114599490881
 10
6.322241134234305
 20
1.263539596515063
 42
1.0
 10
6.331452594183398
 20
1.263539596515063
 42
1.0
  0
LWPOLYLINE
  5
D26F
330
1F
100
AcDbEntity
  8
NETAFIM-L-DETL-025M
100
AcDbPolyline
 90
        2
 70
     1
 43
0.0092114599490881
 10
6.036681594876116
 20
1.25254423475516
 42
1.0
 10
6.045893054825208
 20
1.25254423475516
 42
1.0
  0
LWPOLYLINE
  5
D270
330
1F
100
AcDbEntity
  8
NETAFIM-L-DETL-025M
100
AcDbPolyline
 90
        2
 70
     1
 43
0.0092114599490881
 10
5.827767141393232
 20
1.373169821121163
 42
1.0
 10
5.836978601342318
 20
1.373169821121163
 42
1.0
  0
LWPOLYLINE
  5
D271
330
1F
100
AcDbEntity
  8
NETAFIM-L-DETL-025M
100
AcDbPolyline
 90
        2
 70
     1
 43
0.0092114599490881
 10
5.597185089793699
 20
1.340507128834389
 42
1.0
 10
5.606396549742784
 20
1.340507128834389
 42
1.0
  0
LWPOLYLINE
  5
D272
330
1F
100
AcDbEntity
  8
NETAFIM-L-DETL-025M
100
AcDbPolyline
 90
        2
 70
     1
 43
0.0092114599490881
 10
6.937342203157607
 20
1.582081694559337
 42
1.0
 10
6.946553663106692
 20
1.582081694559337
 42
1.0
  0
LWPOLYLINE
  5
D273
330
1F
100
AcDbEntity
  8
NETAFIM-L-DETL-025M
100
AcDbPolyline
 90
        2
 70
     1
 43
0.0092114599490881
 10
7.013987289032906
 20
1.88930503785077
 42
1.0
 10
7.023198748981998
 20
1.88930503785077
 42
1.0
  0
LWPOLYLINE
  5
D274
330
1F
100
AcDbEntity
  8
NETAFIM-L-DETL-025M
100
AcDbPolyline
 90
        2
 70
     1
 43
0.0092114599490881
 10
6.970328695812797
 20
2.185856412375238
 42
1.0
 10
6.979540155761883
 20
2.185856412375238
 42
1.0
  0
LWPOLYLINE
  5
D275
330
1F
100
AcDbEntity
  8
NETAFIM-L-DETL-025M
100
AcDbPolyline
 90
        2
 70
     1
 43
0.0092114599490881
 10
6.893360212950684
 20
2.515070479186477
 42
1.0
 10
6.902571672899769
 20
2.515070479186477
 42
1.0
  0
LWPOLYLINE
  5
D276
330
1F
100
AcDbEntity
  8
NETAFIM-L-DETL-025M
100
AcDbPolyline
 90
        2
 70
     1
 43
0.0092114599490881
 10
6.937342203157607
 20
3.042201057675987
 42
1.0
 10
6.946553663106692
 20
3.042201057675987
 42
1.0
  0
LWPOLYLINE
  5
D277
330
1F
100
AcDbEntity
  8
NETAFIM-L-DETL-025M
100
AcDbPolyline
 90
        2
 70
     1
 43
0.0092114599490881
 10
7.057969279239829
 20
3.283775623400935
 42
1.0
 10
7.067180739188914
 20
3.283775623400935
 42
1.0
  0
ARC
  5
D28A
330
1F
100
AcDbEntity
  8
NETAFIM-L-DETL-013M
100
AcDbCircle
 10
5.111943030749054
 20
2.096360573265612
 30
0.0
 40
0.1963066365577035
100
AcDbArc
 50
211.7776030058394
 51
328.2223969941603
  0
LWPOLYLINE
  5
D28B
330
1F
100
AcDbEntity
  8
NETAFIM-L-DETL-025M
100
AcDbPolyline
 90
        8
 70
     1
 43
0.0
 10
4.617463030749059
 20
1.601300879144386
 10
4.617463030749059
 20
1.992980879144387
 10
4.945063030749063
 20
1.992980879144387
 10
4.945063030749063
 20
2.215220879144388
 10
5.278823030749054
 20
2.215220879144388
 10
5.278823030749054
 20
1.992980879144387
 10
5.60634303074906
 20
1.992980879144387
 10
5.60634303074906
 20
1.601300879144386
  0
LWPOLYLINE
  5
D28C
330
1F
100
AcDbEntity
  8
NETAFIM-L-DETL-035M
100
AcDbPolyline
 90
        2
 70
     0
 43
0.0
 10
3.564620337569268
 20
1.628253910200741
 10
4.617463030749059
 20
1.628253910200741
  0
LWPOLYLINE
  5
D28D
330
1F
100
AcDbEntity
  8
NETAFIM-L-DETL-035M
100
AcDbPolyline
 90
        2
 70
     0
 43
0.0
 10
3.564620337569268
 20
1.967293910200742
 10
4.617463030749059
 20
1.967293910200742
  0
LWPOLYLINE
  5
D28E
330
1F
100
AcDbEntity
  8
NETAFIM-L-DETL-013M
100
AcDbPolyline
 90
        6
 70
     0
 43
0.0
 10
4.961595108269451
 20
2.215220879144388
 10
4.978377495685331
 20
2.246642942952173
 10
4.968575515234158
 20
2.266946865300808
 10
4.978727566415736
 20
2.286550652396043
 10
4.968925585964557
 20
2.304054033731074
 10
4.978998688054184
 20
2.323453910200741
  0
LWPOLYLINE
  5
D28F
330
1F
100
AcDbEntity
  8
NETAFIM-L-DETL-013M
100
AcDbPolyline
 90
        6
 70
     0
 43
0.0
 10
5.235124532317053
 20
2.215220879144388
 10
5.251432665396622
 20
2.241041860924963
 10
5.243731109327841
 20
2.258545242259994
 10
5.252132806857426
 20
2.276748758848426
 10
5.242330826406247
 20
2.294952275436858
 10
5.258470449425361
 20
2.323453910200742
  0
LWPOLYLINE
  5
D290
330
1F
100
AcDbEntity
  8
NETAFIM-L-DETL-013M
100
AcDbPolyline
 90
        3
 70
     0
 43
0.0
 10
5.237845041570759
 20
2.42345391020074
 10
5.225177360616692
 20
2.399972563447044
 10
5.237203368129053
 20
2.373453910200743
  0
LWPOLYLINE
  5
D291
330
1F
100
AcDbEntity
  8
NETAFIM-L-DETL-013M
100
AcDbPolyline
 90
        3
 70
     0
 43
0.0
 10
4.990980041979705
 20
2.423777162062687
 10
5.003582588274072
 20
2.400322631073744
 10
4.99151102694333
 20
2.373453910200741
  0
LINE
  5
D35A
330
1F
100
AcDbEntity
  8
NETAFIM-L-DETL-013M
100
AcDbLine
 10
5.278728623686477
 20
2.719360691838656
 30
0.0
 11
4.937765255265427
 21
2.719360691838656
 31
0.0
  0
LINE
  5
D35B
330
1F
100
AcDbEntity
  8
NETAFIM-L-DETL-013M
100
AcDbLine
 10
5.291735082851625
 20
2.608240691838656
 30
0.0
 11
4.928766321184079
 21
2.608240691838656
 31
0.0
  0
LINE
  5
D35C
330
1F
100
AcDbEntity
  8
NETAFIM-L-DETL-013M
100
AcDbLine
 10
5.229445255265426
 20
2.473453910200741
 30
0.0
 11
5.229445255265426
 21
2.508240691838657
 31
0.0
  0
LWPOLYLINE
  5
D35D
330
1F
100
AcDbEntity
  8
NETAFIM-L-DETL-013M
100
AcDbPolyline
 90
        2
 70
     0
 43
0.0
 10
5.001605255265426
 20
2.473453910200741
 10
5.001605255265426
 20
2.508240691838657
  0
LWPOLYLINE
  5
D35E
330
1F
100
AcDbEntity
  8
NETAFIM-L-DETL-025M
100
AcDbPolyline
 90
       14
 70
     0
 43
0.0
 10
5.254405255265426
 20
3.311327301019699
 10
5.254405255265426
 20
2.75920069183866
 10
5.282245255265431
 20
2.713600691838657
 10
5.254405255265426
 20
2.679520691838658
 10
5.293285255265418
 20
2.60528069183866
 10
5.254405255265426
 20
2.553920691838661
 10
5.254405255265426
 20
2.508240691838657
 10
4.971125255265421
 20
2.508240691838657
 10
4.971125255265421
 20
2.553920691838661
 10
4.926645255265421
 20
2.610960691838655
 10
4.965525255265427
 20
2.673760691838659
 10
4.937765255265427
 20
2.719360691838656
 10
4.965525255265427
 20
2.764880691838661
 10
4.965525255265427
 20
3.311327301019699
  0
LINE
  5
D57D
330
1F
100
AcDbEntity
  8
NETAFIM-L-DETL-013M
100
AcDbLine
 10
5.508965255265431
 20
4.459937278621796
 30
0.0
 11
5.508965255265431
 21
4.118973910200744
 31
0.0
  0
LINE
  5
D57E
330
1F
100
AcDbEntity
  8
NETAFIM-L-DETL-013M
100
AcDbLine
 10
5.397845255265425
 20
4.472943737786946
 30
0.0
 11
5.397845255265425
 21
4.109974976119391
 31
0.0
  0
LINE
  5
D57F
330
1F
100
AcDbEntity
  8
NETAFIM-L-DETL-013M
100
AcDbLine
 10
5.257205255265427
 20
4.410653910200742
 30
0.0
 11
5.297845255265423
 21
4.410653910200742
 31
0.0
  0
LWPOLYLINE
  5
D580
330
1F
100
AcDbEntity
  8
NETAFIM-L-DETL-013M
100
AcDbPolyline
 90
        2
 70
     0
 43
0.0
 10
5.257205255265427
 20
4.182813910200743
 10
5.297845255265423
 20
4.182813910200743
  0
LWPOLYLINE
  5
D581
102
{ACAD_REACTORS
330
D763
102
}
330
1F
100
AcDbEntity
  8
NETAFIM-L-DETL-025M
100
AcDbPolyline
 90
       14
 70
     0
 43
0.0
 10
6.100931864446474
 20
4.43561391020074
 10
5.548805255265436
 20
4.43561391020074
 10
5.503205255265436
 20
4.463453910200743
 10
5.469125255265426
 20
4.43561391020074
 10
5.39488525526543
 20
4.474493910200741
 10
5.343525255265427
 20
4.43561391020074
 10
5.297845255265423
 20
4.43561391020074
 10
5.297845255265423
 20
4.152333910200744
 10
5.343525255265427
 20
4.152333910200744
 10
5.400565255265428
 20
4.107853910200739
 10
5.463365255265431
 20
4.146733910200745
 10
5.508965255265431
 20
4.118973910200744
 10
5.554485255265428
 20
4.146733910200745
 10
6.100931864446474
 20
4.146733910200745
  0
LWPOLYLINE
  5
D582
102
{ACAD_REACTORS
330
D763
102
}
330
1F
100
AcDbEntity
  8
NETAFIM-L-DETL-025M
100
AcDbPolyline
 90
        2
 70
     0
 43
0.0
 10
6.089493871883449
 20
4.292085420340666
 42
-0.9234788939173826
 10
6.100931864446474
 20
4.435613910200735
 42
-0.7577336477529588
  0
LWPOLYLINE
  5
D583
330
1F
100
AcDbEntity
  8
NETAFIM-L-DETL-025M
100
AcDbPolyline
 90
        2
 70
     0
 43
0.0
 10
6.100931864446474
 20
4.43561391020074
 42
-1.08286178123388
 10
6.089493871883449
 20
4.292085420340666
  0
LWPOLYLINE
  5
D584
330
1F
100
AcDbEntity
  8
NETAFIM-L-DETL-025M
100
AcDbPolyline
 90
        2
 70
     0
 43
0.0
 10
6.100931864446552
 20
4.291173910200753
 42
-1.0
 10
6.100931864446474
 20
4.146733910200745
 42
-119.3879369671607
  0
HATCH
  5
D630
330
1F
100
AcDbEntity
  8
NETAFIM-L-DETL-013M
100
AcDbHatch
 10
0.0
 20
0.0
 30
0.0
210
0.0
220
0.0
230
1.0
  2
SOLID
 70
     1
 71
     0
 91
       12
 92
        7
 72
     1
 73
     1
 93
        3
 10
7.602780123719746
 20
0.5088580073223393
 42
1.407273687863683
 10
7.726610455730011
 20
0.5088580073223393
 42
0.0
 10
7.664695289724875
 20
0.6547209976358977
 42
0.0
 97
        0
 92
        7
 72
     1
 73
     1
 93
        3
 10
7.748564270341027
 20
0.7413756720831879
 42
0.0
 10
7.709189270341028
 20
0.6486139851788782
 42
1.407273687863691
 10
7.787939270341027
 20
0.6486139851788782
 42
0.0
 97
        0
 92
        7
 72
     0
 73
     1
 93
       10
 10
7.891403918155887
 20
0.6487752618358354
 10
7.924014490154156
 20
0.5638218173297345
 10
7.973964490154159
 20
0.5638218173297345
 10
7.996479131873478
 20
0.7240218173297351
 10
7.946529131873475
 20
0.7240218173297351
 10
7.93458970387175
 20
0.6390683728236333
 10
7.901979131873474
 20
0.7240218173297351
 10
7.852029131873479
 20
0.7240218173297351
 10
7.829514490154153
 20
0.5638218173297345
 10
7.879464490154155
 20
0.5638218173297345
 97
        0
 92
        7
 72
     0
 73
     1
 93
       12
 10
8.051780241607758
 20
0.6237577921903182
 10
8.092276386040893
 20
0.6237577921903182
 10
8.098084469672656
 20
0.6650844546087989
 10
8.057588325239514
 20
0.6650844546087989
 10
8.059780301579635
 20
0.6806811766914782
 10
8.103787503302854
 20
0.6806811766914782
 10
8.109878633114689
 20
0.7240218173297351
 10
8.013129131873476
 20
0.7240218173297351
 10
7.990614490154158
 20
0.5638218173297345
 10
8.087363991395363
 20
0.5638218173297345
 10
8.093438897252269
 20
0.6070470185303041
 10
8.049431695529051
 20
0.6070470185303041
 97
        0
 92
        7
 72
     0
 73
     1
 93
        8
 10
8.131801491395364
 20
0.5638218173297345
 10
8.18175149139536
 20
0.5638218173297345
 10
8.19819122725778
 20
0.6807966161291646
 10
8.228228727257778
 20
0.6807966161291646
 10
8.234303633114684
 20
0.7240218173297351
 10
8.124278633114684
 20
0.7240218173297351
 10
8.118203727257778
 20
0.6807966161291646
 10
8.148241227257784
 20
0.6807966161291646
 97
        0
 92
        7
 72
     0
 73
     1
 93
        8
 10
8.195267221775949
 20
0.5638218173297345
 10
8.249267221775944
 20
0.5638218173297345
 10
8.257971398315632
 20
0.5849499593903494
 10
8.300785001506213
 20
0.5849499593903494
 10
8.30185298854235
 20
0.5638218173297345
 10
8.353602988542348
 20
0.5638218173297345
 10
8.332512258428849
 20
0.7240218173297351
 10
8.275139995386105
 20
0.7240218173297351
 97
        0
 92
       22
 72
     0
 73
     1
 93
        3
 10
8.273959090316409
 20
0.6237577921903182
 10
8.296105958546789
 20
0.677516143257237
 10
8.298823340030637
 20
0.6237577921903182
 97
        0
 92
        7
 72
     0
 73
     1
 93
       10
 10
8.428384722948685
 20
0.6237577921903182
 10
8.468880867381827
 20
0.6237577921903182
 10
8.474688951013582
 20
0.6650844546087989
 10
8.434192806580441
 20
0.6650844546087989
 10
8.436384782920562
 20
0.6806811766914782
 10
8.480391984643773
 20
0.6806811766914782
 10
8.486483114455616
 20
0.7240218173297351
 10
8.389600912732397
 20
0.7240218173297351
 10
8.367086271013079
 20
0.5638218173297345
 10
8.419961271013079
 20
0.5638218173297345
 97
        0
 92
        7
 72
     0
 73
     1
 93
        4
 10
8.554433114455612
 20
0.7240218173297351
 10
8.501558114455612
 20
0.7240218173297351
 10
8.479043472736293
 20
0.5638218173297345
 10
8.531918472736293
 20
0.5638218173297345
 97
        0
 92
        7
 72
     0
 73
     1
 93
       13
 10
8.614590601815542
 20
0.6425896221603678
 10
8.624960580050974
 20
0.5638218173297345
 10
8.659362041544525
 20
0.5638218173297345
 10
8.689742683095659
 20
0.6491494233452482
 10
8.689742683095659
 20
0.5638218173297345
 10
8.737892683095658
 20
0.5638218173297345
 10
8.737892683095658
 20
0.7240218173297351
 10
8.68199931585714
 20
0.7240218173297351
 10
8.653007043797707
 20
0.6425936103704402
 10
8.642286816977453
 20
0.7240218173297351
 10
8.588440908032573
 20
0.7240218173297351
 10
8.54250429723401
 20
0.5638218173297345
 10
8.592004297234012
 20
0.5638218173297345
 97
        0
 92
        7
 72
     0
 73
     1
 93
        8
 10
8.779631383606684
 20
0.7240218173297351
 10
8.754881383606686
 20
0.7240218173297351
 10
8.754881383606686
 20
0.7192968173297345
 10
8.76388138360668
 20
0.7192968173297345
 10
8.76388138360668
 20
0.694321817329735
 10
8.770631383606684
 20
0.694321817329735
 10
8.770631383606684
 20
0.7192968173297345
 10
8.779631383606684
 20
0.7192968173297345
 97
        0
 92
        7
 72
     0
 73
     1
 93
       13
 10
8.794481383606679
 20
0.7240218173297351
 10
8.783456383606683
 20
0.7240218173297351
 10
8.783456383606683
 20
0.694321817329735
 10
8.790206383606687
 20
0.694321817329735
 10
8.790206383606687
 20
0.7157621053595414
 10
8.798868883606687
 20
0.694321817329735
 10
8.80336888360668
 20
0.694321817329735
 10
8.812031383606679
 20
0.7157621053595405
 10
8.812031383606679
 20
0.694321817329735
 10
8.818781383606683
 20
0.694321817329735
 10
8.818781383606683
 20
0.7240218173297351
 10
8.807756383606687
 20
0.7240218173297351
 10
8.801118883606683
 20
0.7075935446835198
 97
        0
 75
     0
 76
     1
 47
0.0019728894204142
 98
       12
 10
7.650372135110643
 20
0.5103152141502978
 10
7.756056493365349
 20
0.6443730516044504
 10
7.869733788517152
 20
0.6372706487929696
 10
8.038473522372612
 20
0.6372706487929696
 10
8.165472374982272
 20
0.6354950490973606
 10
8.249842238882038
 20
0.6124122429818311
 10
8.249842238882038
 20
0.6124122429818311
 10
8.407924728587993
 20
0.6239536450323345
 10
8.522490125147939
 20
0.6257292467424663
 10
8.607748096511791
 20
0.6488120528579949
 10
8.768494893470169
 20
0.7224994724581278
 10
8.785368868672492
 20
0.7233872723059323
450
        0
451
        0
460
0.0
461
0.0
452
        1
462
1.0
453
        2
463
0.0
 63
     5
421
      255
463
1.0
 63
     7
421
 16777215
470
LINEAR
1001
ACAD
1010
0.0
1020
0.0
1030
0.0
  0
LWPOLYLINE
  5
D631
330
1F
100
AcDbEntity
  8
NETAFIM-L-DETL-013M
100
AcDbPolyline
 90
        3
 70
     1
 43
0.0
 10
7.748564270341027
 20
0.7413756720831879
 10
7.709189270341028
 20
0.6486139851788782
 42
1.407273687863686
 10
7.787939270341027
 20
0.6486139851788773
  0
LWPOLYLINE
  5
D632
330
1F
100
AcDbEntity
  8
NETAFIM-L-DETL-013M
100
AcDbPolyline
 90
        3
 70
     1
 43
0.0
 10
7.664695289724875
 20
0.6547209976358977
 10
7.602780123719746
 20
0.5088580073223393
 42
1.407273687863686
 10
7.726610455730011
 20
0.5088580073223393
  0
LWPOLYLINE
  5
D633
330
1F
100
AcDbEntity
  8
NETAFIM-L-DETL-013M
100
AcDbPolyline
 90
        2
 70
     0
 43
0.0
 10
7.852029131873479
 20
0.7240218173297351
 10
7.901979131873474
 20
0.7240218173297351
  0
LWPOLYLINE
  5
D634
330
1F
100
AcDbEntity
  8
NETAFIM-L-DETL-013M
100
AcDbPolyline
 90
        2
 70
     0
 43
0.0
 10
7.946529131873475
 20
0.7240218173297351
 10
7.996479131873478
 20
0.7240218173297351
  0
LWPOLYLINE
  5
D635
330
1F
100
AcDbEntity
  8
NETAFIM-L-DETL-013M
100
AcDbPolyline
 90
        2
 70
     0
 43
0.0
 10
8.124278633114684
 20
0.7240218173297351
 10
8.234303633114684
 20
0.7240218173297351
  0
LWPOLYLINE
  5
D636
330
1F
100
AcDbEntity
  8
NETAFIM-L-DETL-013M
100
AcDbPolyline
 90
        2
 70
     0
 43
0.0
 10
8.275139995386105
 20
0.7240218173297351
 10
8.332512258428849
 20
0.7240218173297351
  0
LWPOLYLINE
  5
D637
330
1F
100
AcDbEntity
  8
NETAFIM-L-DETL-013M
100
AcDbPolyline
 90
        2
 70
     0
 43
0.0
 10
8.389600912732397
 20
0.7240218173297351
 10
8.486483114455616
 20
0.7240218173297351
  0
LWPOLYLINE
  5
D638
330
1F
100
AcDbEntity
  8
NETAFIM-L-DETL-013M
100
AcDbPolyline
 90
        2
 70
     0
 43
0.0
 10
8.501558114455612
 20
0.7240218173297351
 10
8.554433114455612
 20
0.7240218173297351
  0
LWPOLYLINE
  5
D639
330
1F
100
AcDbEntity
  8
NETAFIM-L-DETL-013M
100
AcDbPolyline
 90
        2
 70
     0
 43
0.0
 10
8.588440908032573
 20
0.7240218173297351
 10
8.642286816977453
 20
0.7240218173297351
  0
LWPOLYLINE
  5
D63A
330
1F
100
AcDbEntity
  8
NETAFIM-L-DETL-013M
100
AcDbPolyline
 90
        2
 70
     0
 43
0.0
 10
8.68199931585714
 20
0.7240218173297351
 10
8.737892683095658
 20
0.7240218173297351
  0
LWPOLYLINE
  5
D63B
330
1F
100
AcDbEntity
  8
NETAFIM-L-DETL-013M
100
AcDbPolyline
 90
        2
 70
     0
 43
0.0
 10
8.754881383606686
 20
0.7240218173297351
 10
8.779631383606684
 20
0.7240218173297351
  0
LWPOLYLINE
  5
D63C
330
1F
100
AcDbEntity
  8
NETAFIM-L-DETL-013M
100
AcDbPolyline
 90
        2
 70
     0
 43
0.0
 10
8.783456383606683
 20
0.7240218173297351
 10
8.794481383606679
 20
0.7240218173297351
  0
LWPOLYLINE
  5
D63D
330
1F
100
AcDbEntity
  8
NETAFIM-L-DETL-013M
100
AcDbPolyline
 90
        2
 70
     0
 43
0.0
 10
8.807756383606687
 20
0.7240218173297351
 10
8.818781383606683
 20
0.7240218173297351
  0
LWPOLYLINE
  5
D63E
330
1F
100
AcDbEntity
  8
NETAFIM-L-DETL-013M
100
AcDbPolyline
 90
        2
 70
     0
 43
0.0
 10
8.76388138360668
 20
0.694321817329735
 10
8.770631383606684
 20
0.694321817329735
  0
LWPOLYLINE
  5
D63F
330
1F
100
AcDbEntity
  8
NETAFIM-L-DETL-013M
100
AcDbPolyline
 90
        2
 70
     0
 43
0.0
 10
8.783456383606683
 20
0.694321817329735
 10
8.790206383606687
 20
0.694321817329735
  0
LWPOLYLINE
  5
D640
330
1F
100
AcDbEntity
  8
NETAFIM-L-DETL-013M
100
AcDbPolyline
 90
        2
 70
     0
 43
0.0
 10
8.798868883606687
 20
0.694321817329735
 10
8.80336888360668
 20
0.694321817329735
  0
LWPOLYLINE
  5
D641
330
1F
100
AcDbEntity
  8
NETAFIM-L-DETL-013M
100
AcDbPolyline
 90
        2
 70
     0
 43
0.0
 10
8.812031383606679
 20
0.694321817329735
 10
8.818781383606683
 20
0.694321817329735
  0
LWPOLYLINE
  5
D642
330
1F
100
AcDbEntity
  8
NETAFIM-L-DETL-013M
100
AcDbPolyline
 90
        2
 70
     0
 43
0.0
 10
7.829514490154153
 20
0.5638218173297345
 10
7.879464490154155
 20
0.5638218173297345
  0
LWPOLYLINE
  5
D643
330
1F
100
AcDbEntity
  8
NETAFIM-L-DETL-013M
100
AcDbPolyline
 90
        2
 70
     0
 43
0.0
 10
7.924014490154156
 20
0.5638218173297345
 10
7.973964490154159
 20
0.5638218173297345
  0
LWPOLYLINE
  5
D644
330
1F
100
AcDbEntity
  8
NETAFIM-L-DETL-013M
100
AcDbPolyline
 90
        2
 70
     0
 43
0.0
 10
7.990614490154158
 20
0.5638218173297345
 10
8.087363991395363
 20
0.5638218173297345
  0
LWPOLYLINE
  5
D645
330
1F
100
AcDbEntity
  8
NETAFIM-L-DETL-013M
100
AcDbPolyline
 90
        2
 70
     0
 43
0.0
 10
8.131801491395364
 20
0.5638218173297345
 10
8.18175149139536
 20
0.5638218173297345
  0
LWPOLYLINE
  5
D646
330
1F
100
AcDbEntity
  8
NETAFIM-L-DETL-013M
100
AcDbPolyline
 90
        2
 70
     0
 43
0.0
 10
8.195267221775949
 20
0.5638218173297345
 10
8.249267221775944
 20
0.5638218173297345
  0
LWPOLYLINE
  5
D647
330
1F
100
AcDbEntity
  8
NETAFIM-L-DETL-013M
100
AcDbPolyline
 90
        2
 70
     0
 43
0.0
 10
8.30185298854235
 20
0.5638218173297345
 10
8.353602988542348
 20
0.5638218173297345
  0
LWPOLYLINE
  5
D648
330
1F
100
AcDbEntity
  8
NETAFIM-L-DETL-013M
100
AcDbPolyline
 90
        2
 70
     0
 43
0.0
 10
8.367086271013079
 20
0.5638218173297345
 10
8.419961271013079
 20
0.5638218173297345
  0
LWPOLYLINE
  5
D649
330
1F
100
AcDbEntity
  8
NETAFIM-L-DETL-013M
100
AcDbPolyline
 90
        2
 70
     0
 43
0.0
 10
8.479043472736293
 20
0.5638218173297345
 10
8.531918472736293
 20
0.5638218173297345
  0
LWPOLYLINE
  5
D64A
330
1F
100
AcDbEntity
  8
NETAFIM-L-DETL-013M
100
AcDbPolyline
 90
        2
 70
     0
 43
0.0
 10
8.54250429723401
 20
0.5638218173297345
 10
8.592004297234012
 20
0.5638218173297345
  0
LWPOLYLINE
  5
D64B
330
1F
100
AcDbEntity
  8
NETAFIM-L-DETL-013M
100
AcDbPolyline
 90
        2
 70
     0
 43
0.0
 10
8.624960580050974
 20
0.5638218173297345
 10
8.659362041544525
 20
0.5638218173297345
  0
LWPOLYLINE
  5
D64C
330
1F
100
AcDbEntity
  8
NETAFIM-L-DETL-013M
100
AcDbPolyline
 90
        2
 70
     0
 43
0.0
 10
8.689742683095659
 20
0.5638218173297345
 10
8.737892683095658
 20
0.5638218173297345
  0
LWPOLYLINE
  5
D64D
330
1F
100
AcDbEntity
  8
NETAFIM-L-DETL-013M
100
AcDbPolyline
 90
        2
 70
     0
 43
0.0
 10
7.829514490154153
 20
0.5638218173297345
 10
7.852029131873479
 20
0.7240218173297351
  0
LWPOLYLINE
  5
D64E
330
1F
100
AcDbEntity
  8
NETAFIM-L-DETL-013M
100
AcDbPolyline
 90
        2
 70
     0
 43
0.0
 10
7.879464490154155
 20
0.5638218173297345
 10
7.891403918155887
 20
0.6487752618358354
  0
LWPOLYLINE
  5
D64F
330
1F
100
AcDbEntity
  8
NETAFIM-L-DETL-013M
100
AcDbPolyline
 90
        2
 70
     0
 43
0.0
 10
7.93458970387175
 20
0.6390683728236333
 10
7.901979131873474
 20
0.7240218173297351
  0
LWPOLYLINE
  5
D650
330
1F
100
AcDbEntity
  8
NETAFIM-L-DETL-013M
100
AcDbPolyline
 90
        2
 70
     0
 43
0.0
 10
7.93458970387175
 20
0.6390683728236333
 10
7.946529131873475
 20
0.7240218173297351
  0
LWPOLYLINE
  5
D651
330
1F
100
AcDbEntity
  8
NETAFIM-L-DETL-013M
100
AcDbPolyline
 90
        2
 70
     0
 43
0.0
 10
7.924014490154156
 20
0.5638218173297345
 10
7.891403918155887
 20
0.6487752618358354
  0
LWPOLYLINE
  5
D652
330
1F
100
AcDbEntity
  8
NETAFIM-L-DETL-013M
100
AcDbPolyline
 90
        2
 70
     0
 43
0.0
 10
7.973964490154159
 20
0.5638218173297345
 10
7.996479131873478
 20
0.7240218173297351
  0
LWPOLYLINE
  5
D653
330
1F
100
AcDbEntity
  8
NETAFIM-L-DETL-013M
100
AcDbPolyline
 90
        2
 70
     0
 43
0.0
 10
7.990614490154158
 20
0.5638218173297345
 10
8.013129131873476
 20
0.7240218173297351
  0
LWPOLYLINE
  5
D654
330
1F
100
AcDbEntity
  8
NETAFIM-L-DETL-013M
100
AcDbPolyline
 90
        2
 70
     0
 43
0.0
 10
8.087363991395363
 20
0.5638218173297345
 10
8.093438897252269
 20
0.6070470185303041
  0
LWPOLYLINE
  5
D655
330
1F
100
AcDbEntity
  8
NETAFIM-L-DETL-013M
100
AcDbPolyline
 90
        2
 70
     0
 43
0.0
 10
8.103787503302854
 20
0.6806811766914782
 10
8.109878633114689
 20
0.7240218173297351
  0
LWPOLYLINE
  5
D656
330
1F
100
AcDbEntity
  8
NETAFIM-L-DETL-013M
100
AcDbPolyline
 90
        2
 70
     0
 43
0.0
 10
8.049431695529051
 20
0.6070470185303041
 10
8.051780241607758
 20
0.6237577921903182
  0
LWPOLYLINE
  5
D657
330
1F
100
AcDbEntity
  8
NETAFIM-L-DETL-013M
100
AcDbPolyline
 90
        2
 70
     0
 43
0.0
 10
8.057588325239514
 20
0.6650844546087989
 10
8.059780301579635
 20
0.6806811766914782
  0
LWPOLYLINE
  5
D658
330
1F
100
AcDbEntity
  8
NETAFIM-L-DETL-013M
100
AcDbPolyline
 90
        2
 70
     0
 43
0.0
 10
8.092276386040893
 20
0.6237577921903182
 10
8.098084469672656
 20
0.6650844546087989
  0
LWPOLYLINE
  5
D659
330
1F
100
AcDbEntity
  8
NETAFIM-L-DETL-013M
100
AcDbPolyline
 90
        2
 70
     0
 43
0.0
 10
8.118203727257778
 20
0.6807966161291646
 10
8.124278633114684
 20
0.7240218173297351
  0
LWPOLYLINE
  5
D65A
330
1F
100
AcDbEntity
  8
NETAFIM-L-DETL-013M
100
AcDbPolyline
 90
        2
 70
     0
 43
0.0
 10
8.228228727257778
 20
0.6807966161291646
 10
8.234303633114684
 20
0.7240218173297351
  0
LWPOLYLINE
  5
D65B
330
1F
100
AcDbEntity
  8
NETAFIM-L-DETL-013M
100
AcDbPolyline
 90
        2
 70
     0
 43
0.0
 10
8.118203727257778
 20
0.6807966161291646
 10
8.148241227257784
 20
0.6807966161291646
  0
LWPOLYLINE
  5
D65C
330
1F
100
AcDbEntity
  8
NETAFIM-L-DETL-013M
100
AcDbPolyline
 90
        2
 70
     0
 43
0.0
 10
8.19819122725778
 20
0.6807966161291646
 10
8.228228727257778
 20
0.6807966161291646
  0
LWPOLYLINE
  5
D65D
330
1F
100
AcDbEntity
  8
NETAFIM-L-DETL-013M
100
AcDbPolyline
 90
        2
 70
     0
 43
0.0
 10
8.131801491395364
 20
0.5638218173297345
 10
8.148241227257784
 20
0.6807966161291646
  0
LWPOLYLINE
  5
D65E
330
1F
100
AcDbEntity
  8
NETAFIM-L-DETL-013M
100
AcDbPolyline
 90
        2
 70
     0
 43
0.0
 10
8.18175149139536
 20
0.5638218173297345
 10
8.19819122725778
 20
0.6807966161291646
  0
LWPOLYLINE
  5
D65F
330
1F
100
AcDbEntity
  8
NETAFIM-L-DETL-013M
100
AcDbPolyline
 90
        2
 70
     0
 43
0.0
 10
8.103787503302854
 20
0.6806811766914782
 10
8.059780301579635
 20
0.6806811766914782
  0
LWPOLYLINE
  5
D660
330
1F
100
AcDbEntity
  8
NETAFIM-L-DETL-013M
100
AcDbPolyline
 90
        2
 70
     0
 43
0.0
 10
8.093438897252269
 20
0.6070470185303041
 10
8.049431695529051
 20
0.6070470185303041
  0
LWPOLYLINE
  5
D661
330
1F
100
AcDbEntity
  8
NETAFIM-L-DETL-013M
100
AcDbPolyline
 90
        2
 70
     0
 43
0.0
 10
8.092276386040893
 20
0.6237577921903182
 10
8.051780241607758
 20
0.6237577921903182
  0
LWPOLYLINE
  5
D662
330
1F
100
AcDbEntity
  8
NETAFIM-L-DETL-013M
100
AcDbPolyline
 90
        2
 70
     0
 43
0.0
 10
8.098084469672656
 20
0.6650844546087989
 10
8.057588325239514
 20
0.6650844546087989
  0
LWPOLYLINE
  5
D663
330
1F
100
AcDbEntity
  8
NETAFIM-L-DETL-013M
100
AcDbPolyline
 90
        2
 70
     0
 43
0.0
 10
8.298823340030637
 20
0.6237577921903182
 10
8.273959090316409
 20
0.6237577921903182
  0
LWPOLYLINE
  5
D664
330
1F
100
AcDbEntity
  8
NETAFIM-L-DETL-013M
100
AcDbPolyline
 90
        2
 70
     0
 43
0.0
 10
8.367086271013079
 20
0.5638218173297345
 10
8.389600912732397
 20
0.7240218173297351
  0
LWPOLYLINE
  5
D665
330
1F
100
AcDbEntity
  8
NETAFIM-L-DETL-013M
100
AcDbPolyline
 90
        2
 70
     0
 43
0.0
 10
8.479043472736293
 20
0.5638218173297345
 10
8.501558114455612
 20
0.7240218173297351
  0
LWPOLYLINE
  5
D666
330
1F
100
AcDbEntity
  8
NETAFIM-L-DETL-013M
100
AcDbPolyline
 90
        2
 70
     0
 43
0.0
 10
8.480391984643773
 20
0.6806811766914782
 10
8.486483114455616
 20
0.7240218173297351
  0
LWPOLYLINE
  5
D667
330
1F
100
AcDbEntity
  8
NETAFIM-L-DETL-013M
100
AcDbPolyline
 90
        2
 70
     0
 43
0.0
 10
8.195267221775949
 20
0.5638218173297345
 10
8.275139995386105
 20
0.7240218173297351
  0
LWPOLYLINE
  5
D668
330
1F
100
AcDbEntity
  8
NETAFIM-L-DETL-013M
100
AcDbPolyline
 90
        2
 70
     0
 43
0.0
 10
8.249267221775944
 20
0.5638218173297345
 10
8.257971398315632
 20
0.5849499593903494
  0
LWPOLYLINE
  5
D669
330
1F
100
AcDbEntity
  8
NETAFIM-L-DETL-013M
100
AcDbPolyline
 90
        2
 70
     0
 43
0.0
 10
8.273959090316409
 20
0.6237577921903182
 10
8.296105958546789
 20
0.677516143257237
  0
LWPOLYLINE
  5
D66A
330
1F
100
AcDbEntity
  8
NETAFIM-L-DETL-013M
100
AcDbPolyline
 90
        2
 70
     0
 43
0.0
 10
8.353602988542348
 20
0.5638218173297345
 10
8.332512258428849
 20
0.7240218173297351
  0
LWPOLYLINE
  5
D66B
330
1F
100
AcDbEntity
  8
NETAFIM-L-DETL-013M
100
AcDbPolyline
 90
        2
 70
     0
 43
0.0
 10
8.30185298854235
 20
0.5638218173297345
 10
8.300785001506213
 20
0.5849499593903494
  0
LWPOLYLINE
  5
D66C
330
1F
100
AcDbEntity
  8
NETAFIM-L-DETL-013M
100
AcDbPolyline
 90
        2
 70
     0
 43
0.0
 10
8.298823340030637
 20
0.6237577921903182
 10
8.296105958546789
 20
0.677516143257237
  0
LWPOLYLINE
  5
D66D
330
1F
100
AcDbEntity
  8
NETAFIM-L-DETL-013M
100
AcDbPolyline
 90
        2
 70
     0
 43
0.0
 10
8.468880867381827
 20
0.6237577921903182
 10
8.474688951013582
 20
0.6650844546087989
  0
LWPOLYLINE
  5
D66E
330
1F
100
AcDbEntity
  8
NETAFIM-L-DETL-013M
100
AcDbPolyline
 90
        2
 70
     0
 43
0.0
 10
8.474688951013582
 20
0.6650844546087989
 10
8.434192806580441
 20
0.6650844546087989
  0
LWPOLYLINE
  5
D66F
330
1F
100
AcDbEntity
  8
NETAFIM-L-DETL-013M
100
AcDbPolyline
 90
        2
 70
     0
 43
0.0
 10
8.468880867381827
 20
0.6237577921903182
 10
8.428384722948685
 20
0.6237577921903182
  0
LWPOLYLINE
  5
D670
330
1F
100
AcDbEntity
  8
NETAFIM-L-DETL-013M
100
AcDbPolyline
 90
        2
 70
     0
 43
0.0
 10
8.419961271013079
 20
0.5638218173297345
 10
8.428384722948685
 20
0.6237577921903182
  0
LWPOLYLINE
  5
D671
330
1F
100
AcDbEntity
  8
NETAFIM-L-DETL-013M
100
AcDbPolyline
 90
        2
 70
     0
 43
0.0
 10
8.434192806580441
 20
0.6650844546087989
 10
8.436384782920562
 20
0.6806811766914782
  0
LWPOLYLINE
  5
D672
330
1F
100
AcDbEntity
  8
NETAFIM-L-DETL-013M
100
AcDbPolyline
 90
        2
 70
     0
 43
0.0
 10
8.257971398315632
 20
0.5849499593903494
 10
8.300785001506213
 20
0.5849499593903494
  0
LWPOLYLINE
  5
D673
330
1F
100
AcDbEntity
  8
NETAFIM-L-DETL-013M
100
AcDbPolyline
 90
        2
 70
     0
 43
0.0
 10
8.480391984643773
 20
0.6806811766914782
 10
8.436384782920562
 20
0.6806811766914782
  0
LWPOLYLINE
  5
D674
330
1F
100
AcDbEntity
  8
NETAFIM-L-DETL-013M
100
AcDbPolyline
 90
        2
 70
     0
 43
0.0
 10
8.653007043797707
 20
0.6425936103704402
 10
8.642286816977453
 20
0.7240218173297351
  0
LWPOLYLINE
  5
D675
330
1F
100
AcDbEntity
  8
NETAFIM-L-DETL-013M
100
AcDbPolyline
 90
        2
 70
     0
 43
0.0
 10
8.624960580050974
 20
0.5638218173297345
 10
8.614590601815542
 20
0.6425896221603678
  0
LWPOLYLINE
  5
D676
330
1F
100
AcDbEntity
  8
NETAFIM-L-DETL-013M
100
AcDbPolyline
 90
        2
 70
     0
 43
0.0
 10
8.689742683095659
 20
0.5638218173297345
 10
8.689742683095659
 20
0.6491494233452482
  0
LWPOLYLINE
  5
D677
330
1F
100
AcDbEntity
  8
NETAFIM-L-DETL-013M
100
AcDbPolyline
 90
        2
 70
     0
 43
0.0
 10
8.54250429723401
 20
0.5638218173297345
 10
8.588440908032573
 20
0.7240218173297351
  0
LWPOLYLINE
  5
D678
330
1F
100
AcDbEntity
  8
NETAFIM-L-DETL-013M
100
AcDbPolyline
 90
        2
 70
     0
 43
0.0
 10
8.592004297234012
 20
0.5638218173297345
 10
8.614590601815542
 20
0.6425896221603678
  0
LWPOLYLINE
  5
D679
330
1F
100
AcDbEntity
  8
NETAFIM-L-DETL-013M
100
AcDbPolyline
 90
        2
 70
     0
 43
0.0
 10
8.653007043797707
 20
0.6425936103704402
 10
8.68199931585714
 20
0.7240218173297351
  0
LWPOLYLINE
  5
D67A
330
1F
100
AcDbEntity
  8
NETAFIM-L-DETL-013M
100
AcDbPolyline
 90
        2
 70
     0
 43
0.0
 10
8.659362041544525
 20
0.5638218173297354
 10
8.689742683095659
 20
0.6491494233452482
  0
LWPOLYLINE
  5
D67B
330
1F
100
AcDbEntity
  8
NETAFIM-L-DETL-013M
100
AcDbPolyline
 90
        2
 70
     0
 43
0.0
 10
8.013129131873476
 20
0.7240218173297351
 10
8.109878633114689
 20
0.7240218173297351
  0
LWPOLYLINE
  5
D67C
330
1F
100
AcDbEntity
  8
NETAFIM-L-DETL-013M
100
AcDbPolyline
 90
        2
 70
     0
 43
0.0
 10
8.754881383606686
 20
0.7240218173297351
 10
8.754881383606686
 20
0.7192968173297345
  0
LWPOLYLINE
  5
D67D
330
1F
100
AcDbEntity
  8
NETAFIM-L-DETL-013M
100
AcDbPolyline
 90
        2
 70
     0
 43
0.0
 10
8.779631383606684
 20
0.7240218173297351
 10
8.779631383606684
 20
0.7192968173297345
  0
LWPOLYLINE
  5
D67E
330
1F
100
AcDbEntity
  8
NETAFIM-L-DETL-013M
100
AcDbPolyline
 90
        2
 70
     0
 43
0.0
 10
8.783456383606683
 20
0.7240218173297351
 10
8.783456383606683
 20
0.694321817329735
  0
LWPOLYLINE
  5
D67F
330
1F
100
AcDbEntity
  8
NETAFIM-L-DETL-013M
100
AcDbPolyline
 90
        2
 70
     0
 43
0.0
 10
8.790206383606687
 20
0.694321817329735
 10
8.790206383606687
 20
0.7157621053595405
  0
LWPOLYLINE
  5
D680
330
1F
100
AcDbEntity
  8
NETAFIM-L-DETL-013M
100
AcDbPolyline
 90
        2
 70
     0
 43
0.0
 10
8.812031383606679
 20
0.694321817329735
 10
8.812031383606679
 20
0.7157621053595405
  0
LWPOLYLINE
  5
D681
330
1F
100
AcDbEntity
  8
NETAFIM-L-DETL-013M
100
AcDbPolyline
 90
        2
 70
     0
 43
0.0
 10
8.76388138360668
 20
0.694321817329735
 10
8.76388138360668
 20
0.7192968173297345
  0
LWPOLYLINE
  5
D682
330
1F
100
AcDbEntity
  8
NETAFIM-L-DETL-013M
100
AcDbPolyline
 90
        2
 70
     0
 43
0.0
 10
8.754881383606686
 20
0.7192968173297345
 10
8.76388138360668
 20
0.7192968173297345
  0
LWPOLYLINE
  5
D683
330
1F
100
AcDbEntity
  8
NETAFIM-L-DETL-013M
100
AcDbPolyline
 90
        2
 70
     0
 43
0.0
 10
8.770631383606684
 20
0.7192968173297345
 10
8.779631383606684
 20
0.7192968173297345
  0
LWPOLYLINE
  5
D684
330
1F
100
AcDbEntity
  8
NETAFIM-L-DETL-013M
100
AcDbPolyline
 90
        2
 70
     0
 43
0.0
 10
8.794481383606679
 20
0.7240218173297351
 10
8.801118883606683
 20
0.7075935446835198
  0
LWPOLYLINE
  5
D685
330
1F
100
AcDbEntity
  8
NETAFIM-L-DETL-013M
100
AcDbPolyline
 90
        2
 70
     0
 43
0.0
 10
8.807756383606687
 20
0.7240218173297351
 10
8.801118883606683
 20
0.7075935446835198
  0
LWPOLYLINE
  5
D686
330
1F
100
AcDbEntity
  8
NETAFIM-L-DETL-013M
100
AcDbPolyline
 90
        2
 70
     0
 43
0.0
 10
8.812031383606679
 20
0.7157621053595405
 10
8.80336888360668
 20
0.694321817329735
  0
LWPOLYLINE
  5
D687
330
1F
100
AcDbEntity
  8
NETAFIM-L-DETL-013M
100
AcDbPolyline
 90
        2
 70
     0
 43
0.0
 10
8.790206383606687
 20
0.7157621053595405
 10
8.798868883606687
 20
0.694321817329735
  0
LWPOLYLINE
  5
D688
330
1F
100
AcDbEntity
  8
NETAFIM-L-DETL-013M
100
AcDbPolyline
 90
        2
 70
     0
 43
0.0
 10
8.554433114455612
 20
0.7240218173297351
 10
8.531918472736293
 20
0.5638218173297345
  0
LWPOLYLINE
  5
D689
330
1F
100
AcDbEntity
  8
NETAFIM-L-DETL-013M
100
AcDbPolyline
 90
        2
 70
     0
 43
0.0
 10
8.737892683095658
 20
0.5638218173297345
 10
8.737892683095658
 20
0.7240218173297351
  0
LWPOLYLINE
  5
D68A
330
1F
100
AcDbEntity
  8
NETAFIM-L-DETL-013M
100
AcDbPolyline
 90
        2
 70
     0
 43
0.0
 10
8.770631383606684
 20
0.694321817329735
 10
8.770631383606684
 20
0.7192968173297345
  0
LWPOLYLINE
  5
D68B
330
1F
100
AcDbEntity
  8
NETAFIM-L-DETL-013M
100
AcDbPolyline
 90
        2
 70
     0
 43
0.0
 10
8.818781383606683
 20
0.694321817329735
 10
8.818781383606683
 20
0.7240218173297351
  0
LWPOLYLINE
  5
D69E
330
1F
100
AcDbEntity
  8
NETAFIM-LG-DETL-ANNO
100
AcDbPolyline
 90
        4
 70
     1
 43
0.0
 10
0.0
 20
0.0
 10
9.062500000000003
 20
0.0
 10
9.062500000000003
 20
7.124999999999998
 10
0.0
 20
7.124999999999998
1001
LandFX
1000
DETAIL-FORMAT
1000
1A
1040
1.0
1000
DIM1
  0
LINE
  5
D6AF
330
1F
100
AcDbEntity
  8
NETAFIM-D-070M
100
AcDbLine
 10
0.6827834977815748
 20
0.3411345796340779
 30
0.0
 11
8.822671659680125
 21
0.3411345796340779
 31
0.0
  0
CIRCLE
  5
D6B0
330
1F
100
AcDbEntity
  8
NETAFIM-D-070M
100
AcDbCircle
 10
0.4015334977815748
 20
0.3411345796340779
 30
0.0
 40
0.28125
1001
LandFX
1000
DETAIL-CIRCLE
  0
TEXT
  5
D6B1
330
1F
100
AcDbEntity
  8
NETAFIM-D-TEXT-025M
100
AcDbText
 10
0.2183970415697622
 20
0.2363665608325967
 30
0.0
 40
0.24
  1
00
  7
DETAIL NUMBER
 72
     1
 11
0.4015334977815748
 21
0.2363665608325967
 31
0.0
100
AcDbText
1001
LandFX
1000
DETAIL-NUMBER
  0
TEXT
  5
D6B2
330
1F
100
AcDbEntity
  8
NETAFIM-D-TEXT-025M
100
AcDbText
 10
0.862738956263076
 20
0.4291972829225479
 30
0.0
 40
0.18
  1
Techline® START CONNECTION (PVC TO TEE)
  7
DETAIL TITLE
100
AcDbText
1001
LandFX
1000
DETAIL-TITLE
  0
TEXT
  5
D6B3
330
1F
100
AcDbEntity
  8
NETAFIM-D-TEXT-025M
100
AcDbText
 10
0.8697210820341609
 20
0.139743013662887
 30
0.0
 40
0.09
  1
NOT TO SCALE
  7
DETAIL TEXT
100
AcDbText
1001
LandFX
1000
DETAIL-SCALE
  0
TEXT
  5
D6B4
330
1F
100
AcDbEntity
  8
NETAFIM-D-TEXT-025M
100
AcDbText
 10
7.68533493769463
 20
0.1348378227173228
 30
0.0
 40
0.09
  1
DETAIL - E235A
  7
DETAIL TEXT
 72
     2
 11
8.812477794837487
 21
0.1348378227173228
 31
0.0
100
AcDbText
1001
LandFX
1000
DETAIL-FILE
  0
LINE
  5
D6B5
330
1F
100
AcDbEntity
  8
NETAFIM-D-NPLT
100
AcDbLine
 10
0.0
 20
0.1500000000000003
 30
0.0
 11
0.0
 21
0.0
 31
0.0
  0
LINE
  5
D6B6
330
1F
100
AcDbEntity
  8
NETAFIM-D-NPLT
100
AcDbLine
 10
9.0625
 20
0.1500000000000003
 30
0.0
 11
9.0625
 21
0.0
 31
0.0
  0
LINE
  5
D6B7
330
1F
100
AcDbEntity
  8
NETAFIM-D-NPLT
100
AcDbLine
 10
0.0
 20
0.0
 30
0.0
 11
0.1499999999999986
 21
0.0
 31
0.0
  0
LINE
  5
D6B8
330
1F
100
AcDbEntity
  8
NETAFIM-D-NPLT
100
AcDbLine
 10
8.912500000000001
 20
0.0
 30
0.0
 11
9.0625
 21
0.0
 31
0.0
  0
DIMENSION
  5
D74A
102
{ACAD_XDICTIONARY
360
D758
102
}
102
{ACAD_REACTORS
330
D763
102
}
330
1F
100
AcDbEntity
  8
NETAFIM-L-DETL-TEXT-LEADER-025M
100
AcDbDimension
  2
*D1
 10
5.928121293843807
 20
5.528372120429458
 30
0.0
 11
5.928121293843806
 21
4.981993015315101
 31
0.0
 70
    32
  1
{\Fromans|c0;SEE\PSPECS}
 71
     5
 42
1.092758210228716
  3
Netafim Detail
100
AcDbAlignedDimension
 13
6.100931864446509
 23
4.43561391020074
 33
0.0
 14
6.113554484036608
 24
5.528372120429457
 34
0.0
 50
90.0
100
AcDbRotatedDimension
  0
DIMENSION
  5
D76E
102
{ACAD_XDICTIONARY
360
D77C
102
}
102
{ACAD_REACTORS
330
D787
102
}
330
1F
100
AcDbEntity
  8
NETAFIM-L-DETL-TEXT-LEADER-025M
100
AcDbDimension
  2
*D2
 10
6.547265350953776
 20
1.967533910200741
 30
0.0
 11
6.547265350953776
 21
3.747710126984899
 31
0.0
 70
    32
  1
{\Fromans|c0;SEE\PSPECS}
 71
     5
 42
3.560352433568312
  3
Netafim Detail
100
AcDbAlignedDimension
 13
6.155608863494436
 23
5.527886343769053
 33
0.0
 14
6.155608863494436
 24
1.967533910200741
 34
0.0
 50
90.0
100
AcDbRotatedDimension
  0
MULTILEADER
  5
D792
330
1F
100
AcDbEntity
  8
NETAFIM-L-DETL-TEXT-LEADER-025M
 92
      576
310
40020000140000000C00000016000000000000C00C00000013000000993A0000AC0000000B0000007B1F64B169E50040173939473A4D1740000000000000000000000000000000000000000000000000000000000000F03F000000000000F03F0000000000000000000000000000000046494E495348204752414445000033
310
000C000000010000000AD7A3703D0AB73F000000000000F03F0000000000000000000000000000F03F0000000000000000000000000000000000000000726F6D616E732E7368780000000052000C00000010000000090000000C00000016000000000000C00C00000012000000FF7F00000C00000013000000010000000C00
310
00001400000001000000540000000700000003000000926233D3F2D70F40E5E1A796815B16400000000000000000AA4FC070844A104049334DBF620A16400000000000000000F22B2DFC8CAD0F408C28056D7538164000000000000000000C00000013000000891300003C00000006000000020000004247B0E7BFC20F4039
310
85D681FB491640000000000000000085F60722A7EF0B40D5D853761772174000000000000000000C00000013000000112700003C000000060000000200000085F60722A7EF0B40D5D85376177217400000000000000000A47BF3735F0E0940D5D853761772174000000000000000000C00000016000000000000C00C000000
310
12000000FF7F00000C00000017000000000000000C000000130000009A3A00000C00000016000000000000C00C00000012000000FF7F00000C00000017000000FFFFFFFF
100
AcDbMLeader
300
CONTEXT_DATA{
 40
1.0
 10
2.03916085666603
 20
5.861417626254668
 30
0.0
 41
0.09
140
0.12
145
0.09
174
     1
175
     1
176
     2
177
     0
290
     1
304
\A1;{\Fromans|c0;FINISH GRADE}
 11
0.0
 21
0.0
 31
1.0
340
D72D
 12
3.042017999523173
 22
5.915417626254668
 32
0.0
 13
1.0
 23
0.0
 33
0.0
 42
0.0
 43
1.235381328934153
 44
0.0
 45
1.0
170
     1
 90
-1073741824
171
     3
172
     5
 91
-1073741824
141
0.0
 92
        0
291
     0
292
     0
173
     0
293
     0
142
0.0
143
0.0
294
     0
295
     0
296
     0
110
4.0727708451631
120
5.51014231594747
130
0.0
111
1.0
121
0.0
131
0.0
112
0.0
122
1.0
132
0.0
297
     0
302
LEADER{
290
     1
291
     1
 10
3.492017999523172
 20
5.861417626254668
 30
0.0
 11
-1.0
 21
0.0
 31
0.0
 90
        0
 40
0.36
304
LEADER_LINE{
 10
4.0727708451631
 20
5.51014231594747
 30
0.0
 91
        0
305
}
303
}
301
}
340
D730
 90
   279552
170
     1
 91
-1056964608
341
14
171
    -2
290
     1
291
     1
 41
0.36
 42
0.12
172
     2
343
D72D
173
     1
 95
        1
174
     1
175
     2
 92
-1056964608
292
     0
 93
-1056964608
 10
1.0
 20
1.0
 30
1.0
 43
0.0
176
     0
293
     0
294
     0
178
   256
179
     3
 45
1.0
1001
ACAD_MLEADERVER
1070
     2
  0
MULTILEADER
  5
D793
330
1F
100
AcDbEntity
  8
NETAFIM-L-DETL-TEXT-LEADER-025M
 92
      892
310
7C030000160000000C00000016000000000000C00C00000013000000993A0000A80000000B00000001643A26DAD60040775EF3501C6D1440000000000000000000000000000000000000000000000000000000000000F03F000000000000F03F00000000000000000000000000000000546563686C696E6500007C00080000
310
00010000000AD7A3703D0AB73F000000000000F03F0000000000000000000000000000F03F0000000000000000000000000000000000000000726F6D616E732E7368780000000000009C0000000B000000D3F4ADC5371705401C32FE25536C1440000000000000000000000000000000000000000000000000000000000000
310
F03F000000000000F03F00000000000000000000000000000000AE00000001000000010000000AD7A3703D0AB73F000000000000F03F0000000000000000000000000000F03F0000000000000000000000000000000000000000417269616C00000000000000A40000000B000000463B874952D50540775EF3501C6D144000
310
0000000000000000000000000000000000000000000000000000000000F03F000000000000F03F0000000000000000000000000000000020544545001E372404000000010000000AD7A3703D0AB73F000000000000F03F0000000000000000000000000000F03F0000000000000000000000000000000000000000726F6D61
310
6E732E7368780012000ED1010C00000010000000090000000C00000016000000000000C00C00000012000000FF7F00000C00000013000000010000000C00000014000000010000005400000007000000030000002C4A51A60CFD1340573E36B91B0912400000000000000000CE10E3352E651440CD8329CABAC41140000000
310
0000000000FAE7B55280EC13406E16C1D0A3E3114000000000000000000C00000013000000891300003C00000006000000020000001399837CC6F4134063AAFBC45FF61140000000000000000085F60722A7EF0B4001F0891F699B144000000000000000000C00000013000000112700003C000000060000000200000085F6
310
0722A7EF0B4001F0891F699B14400000000000000000A47BF3735F0E094001F0891F699B144000000000000000000C00000016000000000000C00C00000012000000FF7F00000C00000017000000000000000C000000130000009A3A00000C00000016000000000000C00C00000012000000FF7F00000C00000017000000FF
310
FFFFFF
100
AcDbMLeader
300
CONTEXT_DATA{
 40
1.0
 10
2.019193988609121
 20
5.151768200677907
 30
0.0
 41
0.09
140
0.12
145
0.09
174
     1
175
     1
176
     2
177
     0
290
     1
304
\A1;{\Fromans|c0;Techline\A0;\fArial|b0|i0|c0|p34;®\A1;\Fromans|c0; TEE}
 11
0.0
 21
0.0
 31
1.0
340
D72D
 12
3.042017999523173
 22
5.197320724552396
 32
0.0
 13
1.0
 23
0.0
 33
0.0
 42
0.0
 43
1.359320215281691
 44
0.0
 45
1.0
170
     1
 90
-1073741824
171
     3
172
     5
 91
-1073741824
141
0.0
 92
        0
291
     0
292
     0
173
     0
293
     0
142
0.0
143
0.0
294
     0
295
     0
296
     0
110
5.098809091552721
120
4.442118796142449
130
0.0
111
1.0
121
0.0
131
0.0
112
0.0
122
1.0
132
0.0
297
     0
302
LEADER{
290
     1
291
     1
 10
3.492017999523172
 20
5.151768200677907
 30
0.0
 11
-1.0
 21
0.0
 31
0.0
 90
        0
 40
0.36
304
LEADER_LINE{
 10
5.098809091552721
 20
4.442118796142449
 30
0.0
 91
        0
305
}
303
}
301
}
340
D730
 90
   279552
170
     1
 91
-1056964608
341
14
171
    -2
290
     1
291
     1
 41
0.36
 42
0.12
172
     2
343
D72D
173
     1
 95
        1
174
     1
175
     2
 92
-1056964608
292
     0
 93
-1056964608
 10
1.0
 20
1.0
 30
1.0
 43
0.0
176
     0
293
     0
294
     0
178
   256
179
     3
 45
1.0
1001
ACAD_MLEADERVER
1070
     2
  0
MULTILEADER
  5
D794
330
1F
100
AcDbEntity
  8
NETAFIM-L-DETL-TEXT-LEADER-025M
 92
      896
310
80030000160000000C00000016000000000000C00C00000013000000993A0000A80000000B000000C1F9F6D5B2FCFB3F5F180F0F9CE71240000000000000000000000000000000000000000000000000000000000000F03F000000000000F03F00000000000000000000000000000000546563686C696E6500000000080000
310
00010000000AD7A3703D0AB73F000000000000F03F0000000000000000000000000000F03F0000000000000000000000000000000000000000726F6D616E732E7368780001008000009C0000000B000000B20D6F0AB73E024004EC19E4D2E61240000000000000000000000000000000000000000000000000000000000000
310
F03F000000000000F03F00000000000000000000000000000000AE00000001000000010000000AD7A3703D0AB73F000000000000F03F0000000000000000000000000000F03F0000000000000000000000000000000000000000417269616C00000000000000A80000000B0000002554488ED1FC02405F180F0F9CE7124000
310
0000000000000000000000000000000000000000000000000000000000F03F000000000000F03F0000000000000000000000000000000020445249504C494E45007C0009000000010000000AD7A3703D0AB73F000000000000F03F0000000000000000000000000000F03F0000000000000000000000000000000000000000
310
726F6D616E732E7368780000000000000C00000010000000090000000C00000016000000000000C00C00000012000000FF7F00000C00000013000000010000000C00000014000000010000005400000007000000030000003A96E3906E0B1140BC5B222603FE11400000000000000000966EC498D8761140BDC7F58BEABE11
310
4000000000000000003803A343C6FC1040C8A54CC1C3D7114000000000000000000C00000013000000891300003C0000000600000002000000B94C436A1A041140C280B773E3EA1140000000000000000085F60722A7EF0B40E9A9A5DDE815134000000000000000000C00000013000000112700003C000000060000000200
310
000085F60722A7EF0B40E9A9A5DDE81513400000000000000000A47BF3735F0E0940E9A9A5DDE815134000000000000000000C00000016000000000000C00C00000012000000FF7F00000C00000017000000000000000C000000130000009A3A00000C00000016000000000000C00C00000012000000FF7F00000C00000017
310
000000FFFFFFFF
100
AcDbMLeader
300
CONTEXT_DATA{
 40
1.0
 10
1.663479702894836
 20
4.771396125065145
 30
0.0
 41
0.09
140
0.12
145
0.09
174
     1
175
     1
176
     2
177
     0
290
     1
304
\A1;{\Fromans|c0;Techline\A0;\fArial|b0|i0|c0|p34;®\A1;\Fromans|c0; DRIPLINE}
 11
0.0
 21
0.0
 31
1.0
340
D72D
 12
3.042017999523173
 22
4.816948648939634
 32
0.0
 13
1.0
 23
0.0
 33
0.0
 42
0.0
 43
1.446456078074596
 44
0.0
 45
1.0
170
     1
 90
-1073741824
171
     3
172
     5
 91
-1073741824
141
0.0
 92
        0
291
     0
292
     0
173
     0
293
     0
142
0.0
143
0.0
294
     0
295
     0
296
     0
110
4.366060626019722
120
4.436441599727854
130
0.0
111
1.0
121
0.0
131
0.0
112
0.0
122
1.0
132
0.0
297
     0
302
LEADER{
290
     1
291
     1
 10
3.492017999523172
 20
4.771396125065145
 30
0.0
 11
-1.0
 21
0.0
 31
0.0
 90
        0
 40
0.36
304
LEADER_LINE{
 10
4.366060626019722
 20
4.436441599727854
 30
0.0
 91
        0
305
}
303
}
301
}
340
D730
 90
   279552
170
     1
 91
-1056964608
341
14
171
    -2
290
     1
291
     1
 41
0.36
 42
0.12
172
     2
343
D72D
173
     1
 95
        1
174
     1
175
     2
 92
-1056964608
292
     0
 93
-1056964608
 10
1.0
 20
1.0
 30
1.0
 43
0.0
176
     0
293
     0
294
     0
178
   256
179
     3
 45
1.0
1001
ACAD_MLEADERVER
1070
     2
  0
MULTILEADER
  5
D796
330
1F
100
AcDbEntity
  8
NETAFIM-L-DETL-TEXT-LEADER-025M
 92
      896
310
80030000160000000C00000016000000000000C00C00000013000000993A0000AC0000000B0000009F25B5B8DEBAFE3FD6316080E3BE0F40000000000000000000000000000000000000000000000000000000000000F03F000000000000F03F00000000000000000000000000000000424C414E4B20546563686C696E6500
310
000E000000010000000AD7A3703D0AB73F000000000000F03F0000000000000000000000000000F03F0000000000000000000000000000000000000000726F6D616E732E7368780000000052009C0000000B0000007765EBCF0EBB074020D9752A51BD0F400000000000000000000000000000000000000000000000000000
310
00000000F03F000000000000F03F00000000000000000000000000000000AE00300001000000010000000AD7A3703D0AB73F000000000000F03F0000000000000000000000000000F03F0000000000000000000000000000000000000000417269616C00450000000000A40000000B000000D39B2909E6AA0440EEA542F71D
310
8A0E40000000000000000000000000000000000000000000000000000000000000F03F000000000000F03F00000000000000000000000000000000545542494E47004E06000000010000000AD7A3703D0AB73F000000000000F03F0000000000000000000000000000F03F0000000000000000000000000000000000000000
310
726F6D616E732E7368780073007800000C00000010000000090000000C00000016000000000000C00C00000012000000FF7F00000C00000013000000010000000C0000001400000001000000540000000700000003000000177402612D681340810FFDC522F80A400000000000000000269CDB46F3CD1340D269260674680A
310
4000000000000000002BC375ED60561340290FE8B05AAE0A4000000000000000000C00000013000000891300003C0000000600000002000000A11B3C27475F1340558F72BB3ED30A40000000000000000085F60722A7EF0B4005E53F1A1805104000000000000000000C00000013000000112700003C000000060000000200
310
000085F60722A7EF0B4005E53F1A180510400000000000000000A47BF3735F0E094005E53F1A1805104000000000000000000C00000016000000000000C00C00000012000000FF7F00000C00000017000000000000000C000000130000009A3A00000C00000016000000000000C00C00000012000000FF7F00000C00000017
310
000000FFFFFFFF
100
AcDbMLeader
300
CONTEXT_DATA{
 40
1.0
 10
1.830622560037692
 20
4.004974756383721
 30
0.0
 41
0.09
140
0.12
145
0.09
174
     1
175
     1
176
     2
177
     0
290
     1
304
\A1;{\Fromans|c0;BLANK Techline\A0;\fArial|b0|i0|c0|p34;®\A1;\Fromans|c0; TUBING}
 11
0.0
 21
0.0
 31
1.0
340
D72D
 12
3.042017999523173
 22
4.058974756383721
 32
0.0
 13
1.0
 23
0.0
 33
0.0
 42
0.0
 43
1.315752218737621
 44
0.0
 45
1.0
170
     1
 90
-1073741824
171
     3
172
     5
 91
-1073741824
141
0.0
 92
        0
291
     0
292
     0
173
     0
293
     0
142
0.0
143
0.0
294
     0
295
     0
296
     0
110
4.951123339799812
120
3.301002548262865
130
0.0
111
1.0
121
0.0
131
0.0
112
0.0
122
1.0
132
0.0
297
     0
302
LEADER{
290
     1
291
     1
 10
3.492017999523172
 20
4.004974756383721
 30
0.0
 11
-1.0
 21
0.0
 31
0.0
 90
        0
 40
0.36
304
LEADER_LINE{
 10
4.951123339799812
 20
3.301002548262865
 30
0.0
 91
        0
305
}
303
}
301
}
340
D730
 90
   279552
170
     1
 91
-1056964608
341
14
171
    -2
290
     1
291
     1
 41
0.36
 42
0.12
172
     2
343
D72D
173
     1
 95
        1
174
     1
175
     2
 92
-1056964608
292
     0
 93
-1056964608
 10
1.0
 20
1.0
 30
1.0
 43
0.0
176
     0
293
     0
294
     0
178
   256
179
     3
 45
1.0
1001
ACAD_MLEADERVER
1070
     2
  0
MULTILEADER
  5
D797
330
1F
100
AcDbEntity
  8
NETAFIM-L-DETL-TEXT-LEADER-025M
 92
     1064
310
28040000170000000C00000016000000000000C00C00000013000000993A0000A80000000B0000008AB1DF47C1150040F64D32A9DFE90B40000000000000000000000000000000000000000000000000000000000000F03F000000000000F03F00000000000000000000000000000000546563686C696E6500007C00080000
310
00010000000AD7A3703D0AB73F000000000000F03F0000000000000000000000000000F03F0000000000000000000000000000000000000000726F6D616E732E7368780000000000009C0000000B0000005C4253E71E560440772687C351D80B40000000000000000000000000000000000000000000000000000000000000
310
F03F000000000000F03F00000000000000000000000000000000AE00300001000000010000000AD7A3703D0AB73F000000000000F03F0000000000000000000000000000F03F0000000000000000000000000000000000000000417269616C00450000000000A40000000B000000CF882C6B39140540F64D32A9DFE90B4000
310
0000000000000000000000000000000000000000000000000000000000F03F000000000000F03F0000000000000000000000000000000020332F3422006E6505000000010000000AD7A3703D0AB73F000000000000F03F0000000000000000000000000000F03F0000000000000000000000000000000000000000726F6D61
310
6E732E736878007300780001AC0000000B000000C09E8B5C4F73004044F353901EA50A40000000000000000000000000000000000000000000000000000000000000F03F000000000000F03F000000000000000000000000000000004D414C452041444150544552006500000C000000010000000AD7A3703D0AB73F000000
310
000000F03F0000000000000000000000000000F03F0000000000000000000000000000000000000000726F6D616E732E7368780000000052000C00000010000000090000000C00000016000000000000C00C00000012000000FF7F00000C00000013000000010000000C000000140000000100000054000000070000000300
310
0000B93EF530CA6B13403290B526EA62044000000000000000007E75F93551C2134042C6192EACAF0340000000000000000096E94A9366531340F8F979991921044000000000000000000C00000013000000891300003C000000060000000200000028142062985F134015C517E001420440000000000000000085F60722A7
310
EF0B40F3B412ED27450C4000000000000000000C00000013000000112700003C000000060000000200000085F60722A7EF0B40F3B412ED27450C400000000000000000A47BF3735F0E0940F3B412ED27450C4000000000000000000C00000016000000000000C00C00000012000000FF7F00000C0000001700000000000000
310
0C000000130000009A3A00000C00000016000000000000C00C00000012000000FF7F00000C00000017000000FFFFFFFF
100
AcDbMLeader
300
CONTEXT_DATA{
 40
1.0
 10
1.924908274323407
 20
3.533767559178721
 30
0.0
 41
0.09
140
0.12
145
0.09
174
     1
175
     1
176
     2
177
     0
290
     1
304
\A1;{\Fromans|c0;Techline\A0;\fArial|b0|i0|c0|p34;®\A1;\Fromans|c0; 3/4"\PMALE ADAPTER}
 11
0.0
 21
0.0
 31
1.0
340
D72D
 12
3.042017999523173
 22
3.587767559178721
 32
0.0
 13
1.0
 23
0.0
 33
0.0
 42
0.0
 43
1.551019191603224
 44
0.0
 45
1.0
170
     1
 90
-1073741824
171
     3
172
     5
 91
-1073741824
141
0.0
 92
        0
291
     0
292
     0
173
     0
293
     0
142
0.0
143
0.0
294
     0
295
     0
296
     0
110
4.939762919760481
120
2.460777626191686
130
0.0
111
1.0
121
0.0
131
0.0
112
0.0
122
1.0
132
0.0
297
     0
302
LEADER{
290
     1
291
     1
 10
3.492017999523172
 20
3.533767559178721
 30
0.0
 11
-1.0
 21
0.0
 31
0.0
 90
        0
 40
0.36
304
LEADER_LINE{
 10
4.939762919760481
 20
2.460777626191686
 30
0.0
 91
        0
305
}
303
}
301
}
340
D730
 90
   279552
170
     1
 91
-1056964608
341
14
171
    -2
290
     1
291
     1
 41
0.36
 42
0.12
172
     2
343
D72D
173
     1
 95
        1
174
     1
175
     2
 92
-1056964608
292
     0
 93
-1056964608
 10
1.0
 20
1.0
 30
1.0
 43
0.0
176
     0
293
     0
294
     0
178
   256
179
     3
 45
1.0
1001
ACAD_MLEADERVER
1070
     2
  0
MULTILEADER
  5
D798
330
1F
100
AcDbEntity
  8
NETAFIM-L-DETL-TEXT-LEADER-025M
 92
      576
310
40020000140000000C00000016000000000000C00C00000013000000993A0000AC0000000B0000009D1159D67228FE3FD52B7CB2BDDF0740000000000000000000000000000000000000000000000000000000000000F03F000000000000F03F00000000000000000000000000000000505643205445452028537853785429
310
000F000000010000000AD7A3703D0AB73F000000000000F03F0000000000000000000000000000F03F0000000000000000000000000000000000000000726F6D616E732E7368780000000052000C00000010000000090000000C00000016000000000000C00C00000012000000FF7F00000C00000013000000010000000C00
310
0000140000000100000054000000070000000300000080367FAABC691340B0FBB74814B1004000000000000000007E75F93551C213406AA17BDFE401004000000000000000007BC33DDF1D5213405AAB50FD266E004000000000000000000C00000013000000891300003C0000000600000002000000FE7CDE44ED5D134085
310
5304A39D8F0040000000000000000085F60722A7EF0B40925DFE3BBC2E084000000000000000000C00000013000000112700003C000000060000000200000085F60722A7EF0B40925DFE3BBC2E08400000000000000000A47BF3735F0E0940925DFE3BBC2E084000000000000000000C00000016000000000000C00C000000
310
12000000FF7F00000C00000017000000000000000C000000130000009A3A00000C00000016000000000000C00C00000012000000FF7F00000C00000017000000FFFFFFFF
100
AcDbMLeader
300
CONTEXT_DATA{
 40
1.0
 10
1.812017999523172
 20
3.022819966030234
 30
0.0
 41
0.09
140
0.12
145
0.09
174
     1
175
     1
176
     2
177
     0
290
     1
304
\A1;{\Fromans|c0;PVC TEE (SxSxT)}
 11
0.0
 21
0.0
 31
1.0
340
D72D
 12
3.042017999523173
 22
3.082819966030234
 32
0.0
 13
1.0
 23
0.0
 33
0.0
 42
0.0
 43
1.219902730576855
 44
0.0
 45
1.0
170
     1
 90
-1073741824
171
     3
172
     5
 91
-1073741824
141
0.0
 92
        0
291
     0
292
     0
173
     0
293
     0
142
0.0
143
0.0
294
     0
295
     0
296
     0
110
4.939762919760481
120
2.000924821815876
130
0.0
111
1.0
121
0.0
131
0.0
112
0.0
122
1.0
132
0.0
297
     0
302
LEADER{
290
     1
291
     1
 10
3.492017999523172
 20
3.022819966030234
 30
0.0
 11
-1.0
 21
0.0
 31
0.0
 90
        0
 40
0.36
304
LEADER_LINE{
 10
4.939762919760481
 20
2.000924821815876
 30
0.0
 91
        0
305
}
303
}
301
}
340
D730
 90
   279552
170
     1
 91
-1056964608
341
14
171
    -2
290
     1
291
     1
 41
0.36
 42
0.12
172
     2
343
D72D
173
     1
 95
        1
174
     1
175
     2
 92
-1056964608
292
     0
 93
-1056964608
 10
1.0
 20
1.0
 30
1.0
 43
0.0
176
     0
293
     0
294
     0
178
   256
179
     3
 45
1.0
1001
ACAD_MLEADERVER
1070
     2
  0
MULTILEADER
  5
D799
330
1F
100
AcDbEntity
  8
NETAFIM-L-DETL-TEXT-LEADER-025M
 92
      572
310
3C020000140000000C00000016000000000000C00C00000013000000993A0000A80000000B000000ED0D18BDF1320240F4482CF39D880440000000000000000000000000000000000000000000000000000000000000F03F000000000000F03F0000000000000000000000000000000050564320504950494E4700000A0000
310
00010000000AD7A3703D0AB73F000000000000F03F0000000000000000000000000000F03F0000000000000000000000000000000000000000726F6D616E732E7368780001008000000C00000010000000090000000C00000016000000000000C00C00000012000000FF7F00000C00000013000000010000000C0000001400
310
0000010000005400000007000000030000008030C081AB4F104074B570EC5784004000000000000000005EB70F3CD199104024A11DEA4378FF3F000000000000000014F0981736331040BCF083F76C49004000000000000000000C00000013000000891300003C00000006000000020000004A90ACCC704110401853FA71E2
310
660040000000000000000086F60722A7EF0B407188615158D2044000000000000000000C00000013000000112700003C000000060000000200000086F60722A7EF0B407188615158D204400000000000000000A57BF3735F0E09407188615158D2044000000000000000000C00000016000000000000C00C00000012000000
310
FF7F00000C00000017000000000000000C000000130000009A3A00000C00000016000000000000C00C00000012000000FF7F00000C00000017000000FFFFFFFF
100
AcDbMLeader
300
CONTEXT_DATA{
 40
1.0
 10
2.202017999523173
 20
2.602707515515298
 30
0.0
 41
0.09
140
0.12
145
0.09
174
     1
175
     1
176
     2
177
     0
290
     1
304
\A1;{\Fromans|c0;PVC PIPING}
 11
0.0
 21
0.0
 31
1.0
340
D72D
 12
3.042017999523173
 22
2.656707515515298
 32
0.0
 13
1.0
 23
0.0
 33
0.0
 42
0.0
 43
1.324465800673728
 44
0.0
 45
1.0
170
     1
 90
-1073741824
171
     3
172
     5
 91
-1073741824
141
0.0
 92
        0
291
     0
292
     0
173
     0
293
     0
142
0.0
143
0.0
294
     0
295
     0
296
     0
110
4.150212229212995
120
1.966861643328294
130
0.0
111
1.0
121
0.0
131
0.0
112
0.0
122
1.0
132
0.0
297
     0
302
LEADER{
290
     1
291
     1
 10
3.492017999523173
 20
2.602707515515298
 30
0.0
 11
-1.0
 21
0.0
 31
0.0
 90
        0
 40
0.36
304
LEADER_LINE{
 10
4.150212229212995
 20
1.966861643328294
 30
0.0
 91
        0
305
}
303
}
301
}
340
D730
 90
   279552
170
     1
 91
-1056964608
341
14
171
    -2
290
     1
291
     1
 41
0.36
 42
0.12
172
     2
343
D72D
173
     1
 95
        1
174
     1
175
     2
 92
-1056964608
292
     0
 93
-1056964608
 10
1.0
 20
1.0
 30
1.0
 43
0.0
176
     0
293
     0
294
     0
178
   256
179
     3
 45
1.0
1001
ACAD_MLEADERVER
1070
     2
  0
MTEXT
  5
D83A
330
1F
100
AcDbEntity
  8
NETAFIM-D-NPLT
100
AcDbMText
 10
-0.7827171174748458
 20
0.2352495300830739
 30
0.0
 40
0.06
 41
6.843161446901433
 71
     1
 72
     5
  3
{\fArial|b0|i0|c0|p34;LIMITATIONS:\P\PALLOWING FOR A WIDE VARIETY OF APPLICATIONS AND CONDITIONS, NETAFIM IRRIGATION INC. IS NOT RESPONSIBLE FOR CORRECTNESS OR APPLICABILITY TO PURPOSE OR COMPATIBILITY TO ANY SITE OR JOB CONDITION. WARRANTY FOR SUITA
  3
BILITY IS NOT GIVEN OR IMPLIED. MODIFICATIONS FOR SPECIFIC PURPOSES MAY BE NECESSARY AND ARE THE SPECIFIERS' RESPONSIBILITY. THE USE OF THESE DETAILS SHALL NOT BE RESTRICTED AND PUBLICATION THEREOF IS NOT LIMITED TO ANY PURPOSE.  REPRODUCTION, PUBLIC
  1
ATION AND REUSE BY ANY METHOD IN WHOLE OR PART IS FULLY AUTHORIZED. OWNERSHIP IS RETAINED BY NETAFIM IRRIGATION INC.  VISUAL CONTACT WITH THESE DETAILS SHALL CONSTITUTE PRIMA FACIA EVIDENCE OF THE ACCEPTANCE OF THESE RESTRICTIONS.}
  7
DETAIL TEXT
 11
0.0000000000000001
 21
1.0
 31
0.0
 73
     1
 44
1.0
1001
ACAD
1000
ACAD_MTEXT_COLUMN_INFO_BEGIN
1070
    75
1070
     2
1070
    79
1070
     0
1070
    76
1070
     1
1070
    78
1070
     0
1070
    48
1040
6.843161446901433
1070
    49
1040
0.45
1070
    50
1070
     1
1040
0.0
1000
ACAD_MTEXT_COLUMN_INFO_END
  0
LWPOLYLINE
  5
D83B
330
1F
100
AcDbEntity
  8
NETAFIM-D-NPLT
100
AcDbPolyline
 90
        4
 70
     1
 43
0.0
 10
0.0
 20
7.124999999999998
 10
-0.8951802582263113
 20
7.124999999999998
 10
-0.8951802582263113
 20
0.0
 10
0.0
 20
0.0
  0
ENDSEC
  0
SECTION
  2
OBJECTS
  0
DICTIONARY
  5
C
330
0
100
AcDbDictionary
281
     1
  3
ACAD_CIP_PREVIOUS_PRODUCT_INFO
350
D7C9
  3
ACAD_COLOR
350
73
  3
ACAD_GROUP
350
D
  3
ACAD_LAYOUT
350
1A
  3
ACAD_MATERIAL
350
72
  3
ACAD_MLEADERSTYLE
350
D7
  3
ACAD_MLINESTYLE
350
17
  3
ACAD_PLOTSETTINGS
350
19
  3
ACAD_PLOTSTYLENAME
350
E
  3
ACAD_SCALELIST
350
B6
  3
ACAD_TABLESTYLE
350
86
  3
ACAD_VISUALSTYLE
350
99
  3
ACDB_RECOMPOSE_DATA
350
D8EC
  3
AcDbVariableDictionary
350
66
  3
ADE_QUERY_LIBRARY
350
18F
  3
AEC_PROPERTY_SET_DEFS
350
D836
  3
ASE_INDEX_DICTIONARY
350
1FA
  3
Autodesk_MAP
350
179
1001
ADE
1000
ADE02C004
1000
[Query]
1000
CaseSensitiveMatch=0
1000
SaveCurrQueryInSession=1
1000
MkSelSetWithQryObj=0
1000
ShowBlockAsInsPt=0
1000
CreateAssociativeHatchObjects=0
1000
ReferenceBoundaryForAreaLocation=1
1000
ShowImageAsBoundary=1
1000
DefaultJoinOperator=2
1000
ColorForAdd=red
1000
ColorForRemove=red
1000
BlockLocnForQuery=1
1000
TextLocnForQuery=1
1000
IncludeAllObjectsInGroups=0
1000
AlwaysUseLibraryDefinitions=0
1000
PreviewDefinitionsFrom=2
1000
[Save Back]
1000
RedefineBlockDefinitions=1
1000
RedefineLayerDefinitions=1
1000
RedefineTextStyleDefinitions=1
1000
RemoveUnusedGroups=1
1000
EraseSavedBackObjects=1
1000
RemoveLockAfterSave=1
1000
CreateHistoryFileOfChanges=0
1000
CreateBackupFileOfSourceDwg=1
1000
DontAddObjectsToSaveSet=0
1000
MarkObjectsForEditingWithoutPrompting=0
1000
FdoDontAddObjsToSvSet=0
1000
FdoEditWithoutPrompt=1
1000
FdoRemUnusedGrps=1
1000
FdoEraseSvdBkObjs=1
1000
FdoRemoveLockOnSave=1
1000
FdoTesselationMaxPointsDistance=0
1000
FdoTesselationMaxCurvesDistance=0
1000
[Coordinate Transformation]
1000
RestoreLastActiveDwgsOnStartup=1
1000
ActivateDwgsOnAttach=1
1000
AdjustSizesAndScalesForChangesInUnits=1
1000
AdjustRotationsForMapDistortions=1
1000
AdjustSizesAndScalesForMapDistortions=1
1000
AdjustElevations=1
1000
AdjustZeroRotationObjects=1
1000
ReconnectDbOnWSOpen=1
1000
NoOfSQLConditionsInHistory=10
  0
DICTIONARY
  5
D8AC
330
8
100
AcDbDictionary
280
     1
281
     1
  0
DICTIONARY
  5
20C
330
2
100
AcDbDictionary
280
     1
281
     1
  3
ACAD_LAYERSTATES
360
20D
  0
DICTIONARY
  5
E6
330
10
100
AcDbDictionary
280
     1
281
     1
  0
DICTIONARY
  5
1A2
330
1A1
100
AcDbDictionary
280
     1
281
     1
  0
DICTIONARY
  5
1A4
330
1A3
100
AcDbDictionary
280
     1
281
     1
  0
DICTIONARY
  5
1A8
330
1A7
100
AcDbDictionary
280
     1
281
     1
  0
DICTIONARY
  5
D72C
330
D72B
100
AcDbDictionary
280
     1
281
     1
  0
DICTIONARY
  5
15D
330
1F
100
AcDbDictionary
280
     1
281
     1
  3
ACAD_GEOGRAPHICDATA
360
18D
  3
ACAD_SORTENTS
360
188
  0
DICTIONARY
  5
D758
330
D74A
100
AcDbDictionary
280
     1
281
     1
  3
ACAD_DIMASSOC
360
D763
  0
DICTIONARY
  5
D77C
330
D76E
100
AcDbDictionary
280
     1
281
     1
  3
ACAD_DIMASSOC
360
D787
  0
XRECORD
  5
D7C9
102
{ACAD_REACTORS
330
C
102
}
330
C
100
AcDbXrecord
280
     1
300
MAP
300
2012
300
MAP_F_S
  0
DICTIONARY
  5
73
102
{ACAD_REACTORS
330
C
102
}
330
C
100
AcDbDictionary
281
     1
  0
DICTIONARY
  5
D
102
{ACAD_REACTORS
330
C
102
}
330
C
100
AcDbDictionary
281
     1
  0
DICTIONARY
  5
1A
102
{ACAD_REACTORS
330
C
102
}
330
C
100
AcDbDictionary
281
     1
  3
Layout1
350
59
  3
Layout2
350
5E
  3
Model
350
22
  0
DICTIONARY
  5
72
102
{ACAD_REACTORS
330
C
102
}
330
C
100
AcDbDictionary
281
     1
  3
ByBlock
350
97
  3
ByLayer
350
96
  3
Global
350
98
  0
DICTIONARY
  5
D7
102
{ACAD_REACTORS
330
C
102
}
330
C
100
AcDbDictionary
281
     1
  3
Netafim Detail
350
D730
  3
Standard
350
D8
  0
DICTIONARY
  5
17
102
{ACAD_REACTORS
330
C
102
}
330
C
100
AcDbDictionary
281
     1
  3
Standard
350
18
  0
DICTIONARY
  5
19
102
{ACAD_REACTORS
330
C
102
}
330
C
100
AcDbDictionary
281
     1
  0
ACDBDICTIONARYWDFLT
  5
E
102
{ACAD_REACTORS
330
C
102
}
330
C
100
AcDbDictionary
281
     1
  3
Normal
350
F
100
AcDbDictionaryWithDefault
340
F
  0
DICTIONARY
  5
B6
102
{ACAD_REACTORS
330
C
102
}
330
C
100
AcDbDictionary
281
     1
  3
A0
350
B7
  3
A1
350
124
  3
A2
350
125
  3
A3
350
126
  3
A4
350
127
  3
A5
350
128
  3
A6
350
129
  3
A7
350
12A
  3
A8
350
12B
  3
A9
350
12C
  3
B0
350
12D
  3
B1
350
12E
  3
B2
350
12F
  3
B3
350
130
  3
B4
350
131
  3
B5
350
132
  3
B6
350
133
  3
B7
350
134
  3
B8
350
135
  3
B9
350
136
  3
C0
350
137
  3
C1
350
138
  3
C2
350
139
  3
C3
350
13A
  3
C4
350
13B
  3
C5
350
13C
  3
C6
350
13D
  3
C7
350
13E
  3
C8
350
13F
  3
C9
350
140
  3
D0
350
141
  3
D1
350
142
  3
D2
350
143
  0
DICTIONARY
  5
86
102
{ACAD_REACTORS
330
C
102
}
330
C
100
AcDbDictionary
281
     1
  3
Legend
350
181
  3
Standard
350
87
  0
DICTIONARY
  5
99
102
{ACAD_REACTORS
330
C
102
}
330
C
100
AcDbDictionary
281
     1
  3
2dWireframe
350
9F
  3
3D Hidden
350
A1
  3
3dWireframe
350
A0
  3
Basic
350
9E
  3
Brighten
350
A5
  3
ColorChange
350
A9
  3
Conceptual
350
A2
  3
Dim
350
A4
  3
EdgeColorOff
350
175
  3
Facepattern
350
A8
  3
Flat
350
9A
  3
FlatWithEdges
350
9B
  3
Gouraud
350
9C
  3
GouraudWithEdges
350
9D
  3
Hidden
350
1AE
  3
JitterOff
350
173
  3
Linepattern
350
A7
  3
OverhangOff
350
174
  3
Realistic
350
A3
  3
Shaded
350
1B1
  3
Shaded with edges
350
1B4
  3
Shades of Gray
350
1B7
  3
Sketchy
350
1BA
  3
Thicken
350
A6
  3
Wireframe
350
1BD
  3
X-Ray
350
1C0
  0
XRECORD
  5
D8EC
102
{ACAD_REACTORS
330
C
102
}
330
C
100
AcDbXrecord
280
     1
 90
        1
330
87
330
181
330
D83A
  0
DICTIONARY
  5
66
102
{ACAD_REACTORS
330
C
102
}
330
C
100
AcDbDictionary
281
     1
  3
CANNOSCALE
350
F0
  3
CMLEADERSTYLE
350
EF
  3
CTABLESTYLE
350
89
  3
DIMASSOC
350
67
  3
EXPORTMODELSPACE
350
D888
  3
HIDETEXT
350
6B
  3
LAYEREVAL
350
14D
  3
LAYERNOTIFY
350
14E
  3
LIGHTINGUNITS
350
6D8
  3
MSLTSCALE
350
D8DB
  3
STEPSIZE
350
D8DC
  3
XCLIPFRAME
350
D8E9
  0
DICTIONARY
  5
18F
102
{ACAD_REACTORS
330
C
102
}
330
C
100
AcDbDictionary
281
     1
  3
_CurrQry
350
D8E8
  0
DICTIONARY
  5
D836
102
{ACAD_REACTORS
330
C
102
}
330
C
100
AcDbDictionary
281
     1
  0
DICTIONARY
  5
1FA
102
{ACAD_REACTORS
330
C
102
}
330
C
100
AcDbDictionary
281
     1
  3
ASEBlockHierarchyIndexRecord
350
1FB
1001
DCO15
1040
1758271436.882
  0
DICTIONARY
  5
179
102
{ACAD_REACTORS
330
C
102
}
330
C
100
AcDbDictionary
281
     1
  3
AcMapDMStylizedEntities
350
189
  3
FSD_Dictionary
350
18A
  3
MAP_DISPLAY_CUSTOMOBJ_REG_TABLE
350
17D
  3
MAP_DISPLAY_MANAGEMENT_DICTIONARY
350
17A
  3
MAP_DISPLAY_STYLELIBRARY_DICTIONARY
350
17B
  3
MAP_RESOURCE_VERSION_MANAGEMENT_DICTIONARY
350
17E
1001
MapGWS
1000
D:\ProgramData\Autodesk\AutoCAD Map 3D 2010\R18.0\MapCache\E235A-Techline_START_CONNECTION_PVC TO TEEGWS1344890940.xml
  0
DICTIONARY
  5
20D
102
{ACAD_REACTORS
330
20C
102
}
330
20C
100
AcDbDictionary
281
     1
  0
GEODATA
  5
18D
102
{ACAD_REACTORS
330
15D
102
}
330
15D
100
AcDbGeoData
 90
        1
 70
     0
330
1F
 40
37.795
 41
-122.394
 42
0.0
 91
        6
 10
0.0
 20
0.0
 30
0.0
 11
0.0
 21
0.0
 31
0.0
210
0.0
220
0.0
230
1.0
 52
0.0
 43
1.0
 44
1.0
 45
1.0
301

302
<georss:point>37.7950 -122.3940</georss:point>
 46
1.0
303

304

305

306

307

 93
        0
 96
        0
  3
CIVIL3D_DATA_BEGIN
292
     0
 14
-122.394
 24
37.795
 15
-122.394
 25
37.795
 93
        0
 94
        0
293
     0
 16
0.0
 26
0.0
 17
0.0
 27
0.0
 54
0.0
140
0.0
 95
        3
141
1.0
294
     0
142
0.0
143
0.0
  4
CIVIL3D_DATA_END
  0
SORTENTSTABLE
  5
188
102
{ACAD_REACTORS
330
15D
102
}
330
15D
100
AcDbSortentsTable
330
1F
331
D229
  5
D217
331
D260
  5
D24E
331
D637
  5
D637
331
D268
  5
D256
331
D1C2
  5
D2A4
331
D231
  5
D21F
331
D63F
  5
D63F
331
D270
  5
D25E
331
D664
  5
D664
331
D6B3
  5
D6B3
331
D66C
  5
D66C
331
D674
  5
D674
331
D67C
  5
D67C
331
D1EA
  5
D186
331
D239
  5
D227
331
D241
  5
D22F
331
D290
  5
D27E
331
D20A
  5
D1F8
331
D249
  5
D237
331
D251
  5
D23F
331
D645
  5
D645
331
D684
  5
D684
331
D64D
  5
D64D
331
D655
  5
D655
331
D65D
  5
D65D
331
D183
  5
D29B
331
D259
  5
D247
331
D580
  5
D580
331
D630
  5
D630
331
D22A
  5
D218
331
D261
  5
D24F
331
D638
  5
D638
331
D232
  5
D220
331
D1C3
  5
D2A5
331
D269
  5
D257
331
D271
  5
D25F
331
D1E3
  5
D17F
331
D665
  5
D665
331
D6B4
  5
D6B4
331
D66D
  5
D66D
331
D675
  5
D675
331
D67D
  5
D67D
331
D1EB
  5
D1BD
331
D23A
  5
D228
331
D242
  5
D230
331
D291
  5
D27F
331
D20B
  5
D1F9
331
D24A
  5
D238
331
D213
  5
D201
331
D252
  5
D240
331
D646
  5
D646
331
D685
  5
D685
331
D64E
  5
D64E
331
D656
  5
D656
331
D65E
  5
D65E
331
D25A
  5
D248
331
D581
  5
D581
331
D262
  5
D250
331
D22B
  5
D219
331
D631
  5
D631
331
D233
  5
D221
331
D1C4
  5
D2A6
331
D26A
  5
D258
331
D639
  5
D639
331
D272
  5
D260
331
D1E4
  5
D180
331
D666
  5
D666
331
D6B5
  5
D6B5
331
D66E
  5
D66E
331
D676
  5
D676
331
D67E
  5
D67E
331
D28A
  5
D278
331
D1EC
  5
D1BE
331
D23B
  5
D229
331
D243
  5
D231
331
D20C
  5
D1FA
331
D24B
  5
D239
331
D35A
  5
D35A
331
D253
  5
D241
331
D647
  5
D647
331
D686
  5
D686
331
D64F
  5
D64F
331
D657
  5
D657
331
D69E
  5
D69E
331
D65F
  5
D65F
331
D25B
  5
D249
331
D582
  5
D582
331
D632
  5
D632
331
D22C
  5
D21A
331
D1BD
  5
D29F
331
D263
  5
D251
331
D234
  5
D222
331
D1C5
  5
D2A7
331
D26B
  5
D259
331
D63A
  5
D63A
331
D273
  5
D261
331
D1E5
  5
D181
331
D667
  5
D667
331
D6B6
  5
D6B6
331
D66F
  5
D66F
331
D677
  5
D677
331
D67F
  5
D67F
331
D28B
  5
D279
331
D1ED
  5
D1BF
331
D23C
  5
D22A
331
D244
  5
D232
331
D20D
  5
D1FB
331
D24C
  5
D23A
331
D35B
  5
D35B
331
D17E
  5
D296
331
D254
  5
D242
331
D640
  5
D640
331
D648
  5
D648
331
D687
  5
D687
331
D650
  5
D650
331
D658
  5
D658
331
D6AF
  5
D6AF
331
D583
  5
D583
331
D225
  5
D213
331
D25C
  5
D24A
331
D633
  5
D633
331
D22D
  5
D21B
331
D1BE
  5
D2A0
331
D264
  5
D252
331
D235
  5
D223
331
D26C
  5
D25A
331
D63B
  5
D63B
331
D274
  5
D262
331
D1E6
  5
D182
331
D660
  5
D660
331
D668
  5
D668
331
D6B7
  5
D6B7
331
D670
  5
D670
331
D678
  5
D678
331
D28C
  5
D27A
331
D1EE
  5
D1C0
331
D23D
  5
D22B
331
D245
  5
D233
331
D20E
  5
D1FC
331
D24D
  5
D23B
331
D35C
  5
D35C
331
D17F
  5
D297
331
D255
  5
D243
331
D641
  5
D641
331
D680
  5
D680
331
D649
  5
D649
331
D688
  5
D688
331
D651
  5
D651
331
D659
  5
D659
331
D25D
  5
D24B
331
D226
  5
D214
331
D584
  5
D584
331
D634
  5
D634
331
D22E
  5
D21C
331
D1BF
  5
D2A1
331
D265
  5
D253
331
D236
  5
D224
331
D26D
  5
D25B
331
D63C
  5
D63C
331
D275
  5
D263
331
D1E7
  5
D183
331
D661
  5
D661
331
D6B0
  5
D6B0
331
D6B8
  5
D6B8
331
D669
  5
D669
331
D671
  5
D671
331
D679
  5
D679
331
D28D
  5
D27B
331
D1EF
  5
D1C1
331
D23E
  5
D22C
331
D246
  5
D234
331
D20F
  5
D1FD
331
D24E
  5
D23C
331
D35D
  5
D35D
331
D256
  5
D244
331
D57D
  5
D57D
331
D642
  5
D642
331
D681
  5
D681
331
D64A
  5
D64A
331
D689
  5
D689
331
D652
  5
D652
331
D65A
  5
D65A
331
D180
  5
D298
331
D25E
  5
D24C
331
D227
  5
D215
331
D635
  5
D635
331
D22F
  5
D21D
331
D1C0
  5
D2A2
331
D266
  5
D254
331
D237
  5
D225
331
D26E
  5
D25C
331
D63D
  5
D63D
331
D276
  5
D264
331
D662
  5
D662
331
D6B1
  5
D6B1
331
D66A
  5
D66A
331
D672
  5
D672
331
D67A
  5
D67A
331
D1E8
  5
D184
331
D28E
  5
D27C
331
D23F
  5
D22D
331
D1F8
  5
D1E6
331
D247
  5
D235
331
D24F
  5
D23D
331
D35E
  5
D35E
331
D257
  5
D245
331
D57E
  5
D57E
331
D643
  5
D643
331
D682
  5
D682
331
D64B
  5
D64B
331
D68A
  5
D68A
331
D653
  5
D653
331
D65B
  5
D65B
331
D181
  5
D299
331
D228
  5
D216
331
D25F
  5
D24D
331
D636
  5
D636
331
D230
  5
D21E
331
D1C1
  5
D2A3
331
D267
  5
D255
331
D26F
  5
D25D
331
D63E
  5
D63E
331
D277
  5
D265
331
D663
  5
D663
331
D6B2
  5
D6B2
331
D66B
  5
D66B
331
D673
  5
D673
331
D67B
  5
D67B
331
D238
  5
D226
331
D28F
  5
D27D
331
D240
  5
D22E
331
D248
  5
D236
331
D250
  5
D23E
331
D57F
  5
D57F
331
D644
  5
D644
331
D683
  5
D683
331
D64C
  5
D64C
331
D68B
  5
D68B
331
D654
  5
D654
331
D65C
  5
D65C
331
D182
  5
D29A
331
D258
  5
D246
  0
DIMASSOC
  5
D763
102
{ACAD_REACTORS
330
D758
102
}
330
D758
100
AcDbDimAssoc
330
D74A
 90
        3
 70
     0
 71
     0
  1
AcDbOsnapPointRef
 72
    11
331
D581
 73
     2
 91
        0
 40
0.0
 10
0.0
 20
0.0
 30
0.0
332
D582
 74
     2
 92
        0
 75
     0
  1
AcDbOsnapPointRef
 72
     8
331
D1F8
 73
     2
 91
        9
 40
0.0327580797539351
 10
0.0
 20
0.0
 30
0.0
 75
     1
  1
AcDbOsnapPointRef
 72
    11
331
D581
 73
     2
 91
        0
 40
0.0
 10
0.0
 20
0.0
 30
0.0
332
D582
 74
     2
 92
        0
 75
     0
  0
DIMASSOC
  5
D787
102
{ACAD_REACTORS
330
D77C
102
}
330
D77C
100
AcDbDimAssoc
330
D76E
 90
        3
 70
     0
 71
     0
  1
AcDbOsnapPointRef
 72
    10
331
D1F8
 73
     2
 91
        9
 40
0.1116179272221109
 10
0.0
 20
0.0
 30
0.0
 75
     0
  1
AcDbOsnapPointRef
 72
     8
331
D20A
 73
     2
 91
        1
 40
0.5270510485083714
 10
0.0
 20
0.0
 30
0.0
 75
     1
  1
AcDbOsnapPointRef
 72
    10
331
D1F8
 73
     2
 91
        9
 40
0.1116179272221109
 10
0.0
 20
0.0
 30
0.0
 75
     0
  0
LAYOUT
  5
59
102
{ACAD_REACTORS
330
1A
102
}
330
1A
100
AcDbPlotSettings
  1

  2
None
  4

  6

 40
0.0
 41
0.0
 42
0.0
 43
0.0
 44
0.0
 45
0.0
 46
0.0
 47
0.0
 48
0.0
 49
0.0
140
0.0
141
0.0
142
1.0
143
1.0
 70
   688
 72
     0
 73
     0
 74
     5
  7
NETAFIM.ctb
 75
    16
147
1.0
 76
     0
 77
     2
 78
   300
148
0.0
149
0.0
100
AcDbLayout
  1
Layout1
 70
     1
 71
     1
 10
0.0
 20
0.0
 11
12.0
 21
9.0
 12
0.0
 22
0.0
 32
0.0
 14
0.0
 24
0.0
 34
0.0
 15
0.0
 25
0.0
 35
0.0
146
0.0
 13
0.0
 23
0.0
 33
0.0
 16
1.0
 26
0.0
 36
0.0
 17
0.0
 27
1.0
 37
0.0
 76
     0
330
58
  0
LAYOUT
  5
5E
102
{ACAD_REACTORS
330
1A
102
}
330
1A
100
AcDbPlotSettings
  1

  2
None
  4

  6

 40
0.0
 41
0.0
 42
0.0
 43
0.0
 44
0.0
 45
0.0
 46
0.0
 47
0.0
 48
0.0
 49
0.0
140
0.0
141
0.0
142
1.0
143
1.0
 70
   688
 72
     0
 73
     0
 74
     5
  7
NETAFIM.ctb
 75
    16
147
1.0
 76
     0
 77
     2
 78
   300
148
0.0
149
0.0
100
AcDbLayout
  1
Layout2
 70
     1
 71
     2
 10
0.0
 20
0.0
 11
12.0
 21
9.0
 12
0.0
 22
0.0
 32
0.0
 14
0.0
 24
0.0
 34
0.0
 15
0.0
 25
0.0
 35
0.0
146
0.0
 13
0.0
 23
0.0
 33
0.0
 16
1.0
 26
0.0
 36
0.0
 17
0.0
 27
1.0
 37
0.0
 76
     0
330
5D
  0
LAYOUT
  5
22
102
{ACAD_XDICTIONARY
360
6F0
102
}
102
{ACAD_REACTORS
330
1A
102
}
330
1A
100
AcDbPlotSettings
  1

  2
Adobe PDF
  4
Letter
  6

 40
3.174999952316284
 41
3.174999952316284
 42
3.175003051757812
 43
3.17498779296875
 44
215.8999938964844
 45
279.3999938964844
 46
14.27715863854496
 47
21.41793665209394
 48
0.0
 49
0.0
140
0.0
141
0.0
142
1.0
143
1.0
 70
 11940
 72
     0
 73
     1
 74
     1
  7
NETAFIM.ctb
 75
     0
147
1.157762429933976
 76
     0
 77
     2
 78
   300
148
0.0171485257146038
149
0.0053667735833912
100
AcDbLayout
  1
Model
 70
     1
 71
     0
 10
0.0
 20
0.0
 11
12.0
 21
9.0
 12
0.0
 22
0.0
 32
0.0
 14
0.0
 24
0.0
 34
0.0
 15
0.0
 25
0.0
 35
0.0
146
0.0
 13
0.0
 23
0.0
 33
0.0
 16
1.0
 26
0.0
 36
0.0
 17
0.0
 27
1.0
 37
0.0
 76
     0
330
1F
331
94
1001
ACAD_PSEXT
1000
Adobe PDF
1000
Adobe PDF Converter
1000
My Documents\*.pdf
1000

1070
     0
  0
MATERIAL
  5
97
102
{ACAD_XDICTIONARY
360
D8F0
102
}
102
{ACAD_REACTORS
330
72
102
}
330
72
100
AcDbMaterial
  1
ByBlock
  0
MATERIAL
  5
96
102
{ACAD_XDICTIONARY
360
D8EE
102
}
102
{ACAD_REACTORS
330
72
102
}
330
72
100
AcDbMaterial
  1
ByLayer
  0
MATERIAL
  5
98
102
{ACAD_XDICTIONARY
360
110
102
}
102
{ACAD_REACTORS
330
72
102
}
330
72
100
AcDbMaterial
  1
Global
 43
0.0208000000566244
 43
0.0
 43
0.0
 43
0.0
 43
0.0
 43
0.0208000000566244
 43
0.0
 43
0.0
 43
0.0
 43
0.0
 43
1.0
 43
0.0
 43
0.0
 43
0.0
 43
0.0
 43
1.0
 49
0.0208000000566244
 49
0.0
 49
0.0
 49
0.0
 49
0.0
 49
0.0208000000566244
 49
0.0
 49
0.0
 49
0.0
 49
0.0
 49
1.0
 49
0.0
 49
0.0
 49
0.0
 49
0.0
 49
1.0
142
0.0208000000566244
142
0.0
142
0.0
142
0.0
142
0.0
142
0.0208000000566244
142
0.0
142
0.0
142
0.0
142
0.0
142
1.0
142
0.0
142
0.0
142
0.0
142
0.0
142
1.0
144
0.0208000000566244
144
0.0
144
0.0
144
0.0
144
0.0
144
0.0208000000566244
144
0.0
144
0.0
144
0.0
144
0.0
144
1.0
144
0.0
144
0.0
144
0.0
144
0.0
144
1.0
1001
ACAD
1070
    -1
1070
     3
1070
     0
1000

1071
        0
1070
     0
  0
MLEADERSTYLE
  5
D730
102
{ACAD_REACTORS
330
D7
330
D792
330
D793
330
D794
330
D796
330
D797
330
D798
330
D799
102
}
330
D7
100
AcDbMLeaderStyle
170
     2
171
     1
172
     0
 90
        2
 40
0.0
 41
0.0
173
     1
 91
-1056964608
340
14
 92
       -2
290
     1
 42
0.09
291
     1
 43
0.36
  3
Standard
 44
0.12
300

342
D72D
174
     1
178
     1
175
     1
176
     0
 93
-1056964608
 45
0.09
292
     0
297
     0
 46
0.18
 94
-1056964608
 47
1.0
 49
1.0
140
1.0
293
     1
141
0.0
294
     1
177
     0
142
1.0
295
     0
296
     0
143
0.125
1001
ACAD_MLEADERVER
1070
     2
  0
MLEADERSTYLE
  5
D8
102
{ACAD_REACTORS
330
D7
102
}
330
D7
100
AcDbMLeaderStyle
170
     2
171
     1
172
     0
 90
        2
 40
0.0
 41
0.0
173
     1
 91
-1056964608
340
14
 92
       -2
290
     1
 42
0.09
291
     1
 43
0.36
  3
Standard
 44
0.18
300

342
11
174
     1
178
     1
175
     1
176
     0
 93
-1056964608
 45
0.18
292
     0
297
     0
 46
0.18
 94
-1056964608
 47
1.0
 49
1.0
140
1.0
293
     1
141
0.0
294
     1
177
     0
142
1.0
295
     0
296
     0
143
0.125
1001
ACAD_MLEADERVER
1070
     2
  0
MLINESTYLE
  5
18
102
{ACAD_REACTORS
330
17
102
}
330
17
100
AcDbMlineStyle
  2
STANDARD
 70
     0
  3

 62
   256
 51
90.0
 52
90.0
 71
     2
 49
0.5
 62
   256
  6
BYLAYER
 49
-0.5
 62
   256
  6
BYLAYER
  0
ACDBPLACEHOLDER
  5
F
102
{ACAD_REACTORS
330
E
102
}
330
E
  0
SCALE
  5
B7
102
{ACAD_REACTORS
330
B6
102
}
330
B6
100
AcDbScale
 70
     0
300
1:1
140
1.0
141
1.0
290
     1
  0
SCALE
  5
124
102
{ACAD_REACTORS
330
B6
102
}
330
B6
100
AcDbScale
 70
     0
300
1:2
140
1.0
141
2.0
290
     0
  0
SCALE
  5
125
102
{ACAD_REACTORS
330
B6
102
}
330
B6
100
AcDbScale
 70
     0
300
1:4
140
1.0
141
4.0
290
     0
  0
SCALE
  5
126
102
{ACAD_REACTORS
330
B6
102
}
330
B6
100
AcDbScale
 70
     0
300
1:5
140
1.0
141
5.0
290
     0
  0
SCALE
  5
127
102
{ACAD_REACTORS
330
B6
102
}
330
B6
100
AcDbScale
 70
     0
300
1:8
140
1.0
141
8.0
290
     0
  0
SCALE
  5
128
102
{ACAD_REACTORS
330
B6
102
}
330
B6
100
AcDbScale
 70
     0
300
1:10
140
1.0
141
10.0
290
     0
  0
SCALE
  5
129
102
{ACAD_REACTORS
330
B6
102
}
330
B6
100
AcDbScale
 70
     0
300
1:16
140
1.0
141
16.0
290
     0
  0
SCALE
  5
12A
102
{ACAD_REACTORS
330
B6
102
}
330
B6
100
AcDbScale
 70
     0
300
1:20
140
1.0
141
20.0
290
     0
  0
SCALE
  5
12B
102
{ACAD_REACTORS
330
B6
102
}
330
B6
100
AcDbScale
 70
     0
300
1:30
140
1.0
141
30.0
290
     0
  0
SCALE
  5
12C
102
{ACAD_REACTORS
330
B6
102
}
330
B6
100
AcDbScale
 70
     0
300
1:40
140
1.0
141
40.0
290
     0
  0
SCALE
  5
12D
102
{ACAD_REACTORS
330
B6
102
}
330
B6
100
AcDbScale
 70
     0
300
1:50
140
1.0
141
50.0
290
     0
  0
SCALE
  5
12E
102
{ACAD_REACTORS
330
B6
102
}
330
B6
100
AcDbScale
 70
     0
300
1:100
140
1.0
141
100.0
290
     0
  0
SCALE
  5
12F
102
{ACAD_REACTORS
330
B6
102
}
330
B6
100
AcDbScale
 70
     0
300
2:1
140
2.0
141
1.0
290
     0
  0
SCALE
  5
130
102
{ACAD_REACTORS
330
B6
102
}
330
B6
100
AcDbScale
 70
     0
300
4:1
140
4.0
141
1.0
290
     0
  0
SCALE
  5
131
102
{ACAD_REACTORS
330
B6
102
}
330
B6
100
AcDbScale
 70
     0
300
8:1
140
8.0
141
1.0
290
     0
  0
SCALE
  5
132
102
{ACAD_REACTORS
330
B6
102
}
330
B6
100
AcDbScale
 70
     0
300
10:1
140
10.0
141
1.0
290
     0
  0
SCALE
  5
133
102
{ACAD_REACTORS
330
B6
102
}
330
B6
100
AcDbScale
 70
     0
300
100:1
140
100.0
141
1.0
290
     0
  0
SCALE
  5
134
102
{ACAD_REACTORS
330
B6
102
}
330
B6
100
AcDbScale
 70
     0
300
1/128" = 1'-0"
140
0.0078125
141
12.0
290
     0
  0
SCALE
  5
135
102
{ACAD_REACTORS
330
B6
102
}
330
B6
100
AcDbScale
 70
     0
300
1/64" = 1'-0"
140
0.015625
141
12.0
290
     0
  0
SCALE
  5
136
102
{ACAD_REACTORS
330
B6
102
}
330
B6
100
AcDbScale
 70
     0
300
1/32" = 1'-0"
140
0.03125
141
12.0
290
     0
  0
SCALE
  5
137
102
{ACAD_REACTORS
330
B6
102
}
330
B6
100
AcDbScale
 70
     0
300
1/16" = 1'-0"
140
0.0625
141
12.0
290
     0
  0
SCALE
  5
138
102
{ACAD_REACTORS
330
B6
102
}
330
B6
100
AcDbScale
 70
     0
300
3/32" = 1'-0"
140
0.09375
141
12.0
290
     0
  0
SCALE
  5
139
102
{ACAD_REACTORS
330
B6
102
}
330
B6
100
AcDbScale
 70
     0
300
1/8" = 1'-0"
140
0.125
141
12.0
290
     0
  0
SCALE
  5
13A
102
{ACAD_REACTORS
330
B6
102
}
330
B6
100
AcDbScale
 70
     0
300
3/16" = 1'-0"
140
0.1875
141
12.0
290
     0
  0
SCALE
  5
13B
102
{ACAD_REACTORS
330
B6
102
}
330
B6
100
AcDbScale
 70
     0
300
1/4" = 1'-0"
140
0.25
141
12.0
290
     0
  0
SCALE
  5
13C
102
{ACAD_REACTORS
330
B6
102
}
330
B6
100
AcDbScale
 70
     0
300
3/8" = 1'-0"
140
0.375
141
12.0
290
     0
  0
SCALE
  5
13D
102
{ACAD_REACTORS
330
B6
102
}
330
B6
100
AcDbScale
 70
     0
300
1/2" = 1'-0"
140
0.5
141
12.0
290
     0
  0
SCALE
  5
13E
102
{ACAD_REACTORS
330
B6
102
}
330
B6
100
AcDbScale
 70
     0
300
3/4" = 1'-0"
140
0.75
141
12.0
290
     0
  0
SCALE
  5
13F
102
{ACAD_REACTORS
330
B6
102
}
330
B6
100
AcDbScale
 70
     0
300
1" = 1'-0"
140
1.0
141
12.0
290
     0
  0
SCALE
  5
140
102
{ACAD_REACTORS
330
B6
102
}
330
B6
100
AcDbScale
 70
     0
300
1-1/2" = 1'-0"
140
1.5
141
12.0
290
     0
  0
SCALE
  5
141
102
{ACAD_REACTORS
330
B6
102
}
330
B6
100
AcDbScale
 70
     0
300
3" = 1'-0"
140
3.0
141
12.0
290
     0
  0
SCALE
  5
142
102
{ACAD_REACTORS
330
B6
102
}
330
B6
100
AcDbScale
 70
     0
300
6" = 1'-0"
140
6.0
141
12.0
290
     0
  0
SCALE
  5
143
102
{ACAD_REACTORS
330
B6
102
}
330
B6
100
AcDbScale
 70
     0
300
1'-0" = 1'-0"
140
12.0
141
12.0
290
     0
  0
TABLESTYLE
  5
181
102
{ACAD_XDICTIONARY
360
D8A9
102
}
102
{ACAD_REACTORS
330
86
102
}
330
86
100
AcDbTableStyle
  3

 70
     0
 71
     3
 40
0.06
 41
0.06
280
     0
281
     0
  7
Legend
140
0.4
170
     4
 62
     0
 63
     7
283
     0
274
    -2
284
     0
 64
     0
275
    -2
285
     0
 65
     0
276
    -2
286
     0
 66
     0
277
    -2
287
     0
 67
     0
278
    -2
288
     0
 68
     0
279
    -2
289
     0
 69
     0
  7
Legend
140
0.5
170
     5
 62
     0
 63
     7
283
     0
274
    -2
284
     0
 64
     0
275
    -2
285
     0
 65
     0
276
    -2
286
     0
 66
     0
277
    -2
287
     0
 67
     0
278
    -2
288
     0
 68
     0
279
    -2
289
     0
 69
     0
  7
Legend
140
0.4
170
     4
 62
     0
 63
     7
283
     0
274
    -2
284
     0
 64
     0
275
    -2
285
     0
 65
     0
276
    -2
286
     0
 66
     0
277
    -2
287
     0
 67
     0
278
    -2
288
     0
 68
     0
279
    -2
289
     0
 69
     0
  0
TABLESTYLE
  5
87
102
{ACAD_XDICTIONARY
360
104
102
}
102
{ACAD_REACTORS
330
86
102
}
330
86
100
AcDbTableStyle
  3
Standard
 70
     0
 71
     0
 40
0.06
 41
0.06
280
     0
281
     0
  7
Standard
140
0.18
170
     2
 62
     0
 63
     7
283
     0
274
    -2
284
     1
 64
     0
275
    -2
285
     1
 65
     0
276
    -2
286
     1
 66
     0
277
    -2
287
     1
 67
     0
278
    -2
288
     1
 68
     0
279
    -2
289
     1
 69
     0
  7
Standard
140
0.25
170
     5
 62
     0
 63
     7
283
     0
274
    -2
284
     1
 64
     0
275
    -2
285
     1
 65
     0
276
    -2
286
     1
 66
     0
277
    -2
287
     1
 67
     0
278
    -2
288
     1
 68
     0
279
    -2
289
     1
 69
     0
  7
Standard
140
0.18
170
     5
 62
     0
 63
     7
283
     0
274
    -2
284
     1
 64
     0
275
    -2
285
     1
 65
     0
276
    -2
286
     1
 66
     0
277
    -2
287
     1
 67
     0
278
    -2
288
     1
 68
     0
279
    -2
289
     1
 69
     0
  0
VISUALSTYLE
  5
9F
102
{ACAD_XDICTIONARY
360
D8FD
102
}
102
{ACAD_REACTORS
330
99
102
}
330
99
100
AcDbVisualStyle
  2
2dWireframe
 70
     4
 71
     0
 72
     2
 73
     1
 90
        0
 40
-0.6
 41
-30.0
 62
     5
 63
     7
421
 16777215
 74
     1
 91
        4
 64
     7
 65
   257
 75
     1
175
     1
 42
1.0
 92
        0
 66
   257
 43
1.0
 76
     1
 77
     6
 78
     2
 67
     7
 79
     5
170
     0
171
     0
290
     0
174
     0
 93
        1
 44
0.0
173
     0
291
     0
 45
0.0
1001
ACAD
1000
AcDbSavedByObjectVersion
1070
     0
  0
VISUALSTYLE
  5
A1
102
{ACAD_XDICTIONARY
360
D901
102
}
102
{ACAD_REACTORS
330
99
102
}
330
99
100
AcDbVisualStyle
  2
3D Hidden
 70
     6
 71
     1
 72
     2
 73
     2
 90
        0
 40
-0.6
 41
-30.0
 62
     5
 63
     7
421
 16777215
 74
     2
 91
        2
 64
     7
 65
   257
 75
     2
175
     1
 42
40.0
 92
        0
 66
   257
 43
1.0
 76
     1
 77
     6
 78
     2
 67
     7
 79
     3
170
     0
171
     0
290
     0
174
     0
 93
        1
 44
0.0
173
     0
291
     0
 45
0.0
1001
ACAD
1000
AcDbSavedByObjectVersion
1070
     0
  0
VISUALSTYLE
  5
A0
102
{ACAD_XDICTIONARY
360
D8FF
102
}
102
{ACAD_REACTORS
330
99
102
}
330
99
100
AcDbVisualStyle
  2
3dWireframe
 70
     5
 71
     0
 72
     2
 73
     1
 90
        0
 40
-0.6
 41
-30.0
 62
     5
 63
     7
421
 16777215
 74
     1
 91
        4
 64
     7
 65
   257
 75
     1
175
     1
 42
1.0
 92
        0
 66
   257
 43
1.0
 76
     1
 77
     6
 78
     2
 67
     7
 79
     5
170
     0
171
     0
290
     0
174
     0
 93
        1
 44
0.0
173
     0
291
     0
 45
0.0
1001
ACAD
1000
AcDbSavedByObjectVersion
1070
     0
  0
VISUALSTYLE
  5
9E
102
{ACAD_XDICTIONARY
360
D8FB
102
}
102
{ACAD_REACTORS
330
99
102
}
330
99
100
AcDbVisualStyle
  2
Basic
 70
     7
 71
     1
 72
     0
 73
     1
 90
        0
 40
-0.6
 41
-30.0
 62
     5
 63
     7
421
 16777215
 74
     0
 91
        4
 64
     7
 65
   257
 75
     1
175
     1
 42
1.0
 92
        8
 66
     7
 43
1.0
 76
     1
 77
     6
 78
     2
 67
     7
 79
     5
170
     0
171
     0
290
     0
174
     0
 93
        1
 44
0.0
173
     0
291
     1
 45
0.0
1001
ACAD
1000
AcDbSavedByObjectVersion
1070
     0
  0
VISUALSTYLE
  5
A5
102
{ACAD_XDICTIONARY
360
D909
102
}
102
{ACAD_REACTORS
330
99
102
}
330
99
100
AcDbVisualStyle
  2
Brighten
 70
    12
 71
     2
 72
     2
 73
     1
 90
        0
 40
-0.6
 41
-30.0
 62
     5
 63
     7
421
 16777215
 74
     1
 91
        4
 64
     7
 65
   257
 75
     1
175
     1
 42
1.0
 92
        8
 66
     7
 43
1.0
 76
     1
 77
     6
 78
     2
 67
     7
 79
     5
170
     0
171
     0
290
     0
174
     0
 93
        1
 44
50.0
173
     0
291
     1
 45
0.0
1001
ACAD
1000
AcDbSavedByObjectVersion
1070
     0
  0
VISUALSTYLE
  5
A9
102
{ACAD_XDICTIONARY
360
D911
102
}
102
{ACAD_REACTORS
330
99
102
}
330
99
100
AcDbVisualStyle
  2
ColorChange
 70
    16
 71
     2
 72
     2
 73
     3
 90
        0
 40
-0.6
 41
-30.0
 62
     5
 63
     8
421
  8421504
 74
     1
 91
        4
 64
     7
 65
   257
 75
     1
175
     1
 42
1.0
 92
        8
 66
     8
424
  8421504
 43
1.0
 76
     1
 77
     6
 78
     2
 67
     7
 79
     5
170
     0
171
     0
290
     0
174
     0
 93
        1
 44
0.0
173
     0
291
     1
 45
0.0
1001
ACAD
1000
AcDbSavedByObjectVersion
1070
     0
  0
VISUALSTYLE
  5
A2
102
{ACAD_XDICTIONARY
360
D903
102
}
102
{ACAD_REACTORS
330
99
102
}
330
99
100
AcDbVisualStyle
  2
Conceptual
 70
     9
 71
     3
 72
     2
 73
     1
 90
        0
 40
-0.6
 41
-30.0
 62
     5
 63
     7
421
 16777215
 74
     2
 91
        2
 64
     7
 65
   257
 75
     1
175
     1
 42
40.0
 92
        8
 66
     7
 43
1.0
 76
     1
 77
     6
 78
     2
 67
     7
 79
     3
170
     0
171
     0
290
     0
174
     0
 93
        1
 44
0.0
173
     0
291
     0
 45
0.0
1001
ACAD
1000
AcDbSavedByObjectVersion
1070
     0
  0
VISUALSTYLE
  5
A4
102
{ACAD_XDICTIONARY
360
D907
102
}
102
{ACAD_REACTORS
330
99
102
}
330
99
100
AcDbVisualStyle
  2
Dim
 70
    11
 71
     2
 72
     2
 73
     1
 90
        0
 40
-0.6
 41
-30.0
 62
     5
 63
     7
421
 16777215
 74
     1
 91
        4
 64
     7
 65
   257
 75
     1
175
     1
 42
1.0
 92
        8
 66
     7
 43
1.0
 76
     1
 77
     6
 78
     2
 67
     7
 79
     5
170
     0
171
     0
290
     0
174
     0
 93
        1
 44
-50.0
173
     0
291
     1
 45
0.0
1001
ACAD
1000
AcDbSavedByObjectVersion
1070
     0
  0
VISUALSTYLE
  5
175
102
{ACAD_XDICTIONARY
360
D917
102
}
102
{ACAD_REACTORS
330
99
102
}
330
99
100
AcDbVisualStyle
  2
EdgeColorOff
 70
    22
 71
     2
 72
     2
 73
     0
 90
        0
 40
-0.6
 41
-30.0
 62
     5
 63
     7
421
 16777215
 74
     1
 91
        4
 64
     7
 65
   257
 75
     1
175
     1
 42
1.0
 92
        8
 66
     7
 43
1.0
 76
     1
 77
     6
 78
     2
 67
     7
 79
     5
170
     0
171
     0
290
     0
174
     0
 93
        1
 44
0.0
173
     0
291
     1
 45
0.0
1001
ACAD
1000
AcDbSavedByObjectVersion
1070
     0
  0
VISUALSTYLE
  5
A8
102
{ACAD_XDICTIONARY
360
D90F
102
}
102
{ACAD_REACTORS
330
99
102
}
330
99
100
AcDbVisualStyle
  2
Facepattern
 70
    15
 71
     2
 72
     2
 73
     1
 90
        0
 40
-0.6
 41
-30.0
 62
     5
 63
     7
421
 16777215
 74
     1
 91
        4
 64
     7
 65
   257
 75
     1
175
     1
 42
1.0
 92
        8
 66
     7
 43
1.0
 76
     1
 77
     6
 78
     2
 67
     7
 79
     5
170
     0
171
     0
290
     0
174
     0
 93
        1
 44
0.0
173
     0
291
     1
 45
0.0
1001
ACAD
1000
AcDbSavedByObjectVersion
1070
     0
  0
VISUALSTYLE
  5
9A
102
{ACAD_XDICTIONARY
360
D8F3
102
}
102
{ACAD_REACTORS
330
99
102
}
330
99
100
AcDbVisualStyle
  2
Flat
 70
     0
 71
     2
 72
     1
 73
     1
 90
        2
 40
-0.6
 41
30.0
 62
     5
 63
     7
421
 16777215
 74
     0
 91
        4
 64
     7
 65
   257
 75
     1
175
     1
 42
1.0
 92
        8
 66
     7
 43
1.0
 76
     1
 77
     6
 78
     2
 67
     7
 79
     5
170
     0
171
     0
290
     0
174
     0
 93
        1
 44
0.0
173
     0
291
     1
 45
0.0
1001
ACAD
1000
AcDbSavedByObjectVersion
1070
     0
  0
VISUALSTYLE
  5
9B
102
{ACAD_XDICTIONARY
360
D8F5
102
}
102
{ACAD_REACTORS
330
99
102
}
330
99
100
AcDbVisualStyle
  2
FlatWithEdges
 70
     1
 71
     2
 72
     1
 73
     1
 90
        2
 40
-0.6
 41
30.0
 62
     5
 63
     7
421
 16777215
 74
     1
 91
        4
 64
     7
 65
   257
 75
     1
175
     1
 42
1.0
 92
        0
 66
   257
 43
1.0
 76
     1
 77
     6
 78
     2
 67
     7
 79
     5
170
     0
171
     0
290
     0
174
     0
 93
        1
 44
0.0
173
     0
291
     1
 45
0.0
1001
ACAD
1000
AcDbSavedByObjectVersion
1070
     0
  0
VISUALSTYLE
  5
9C
102
{ACAD_XDICTIONARY
360
D8F7
102
}
102
{ACAD_REACTORS
330
99
102
}
330
99
100
AcDbVisualStyle
  2
Gouraud
 70
     2
 71
     2
 72
     2
 73
     1
 90
        2
 40
-0.6
 41
30.0
 62
     5
 63
     7
421
 16777215
 74
     0
 91
        4
 64
     7
 65
   257
 75
     1
175
     1
 42
1.0
 92
        0
 66
     7
 43
1.0
 76
     1
 77
     6
 78
     2
 67
     7
 79
     5
170
     0
171
     0
290
     0
174
     0
 93
        1
 44
0.0
173
     0
291
     1
 45
0.0
1001
ACAD
1000
AcDbSavedByObjectVersion
1070
     0
  0
VISUALSTYLE
  5
9D
102
{ACAD_XDICTIONARY
360
D8F9
102
}
102
{ACAD_REACTORS
330
99
102
}
330
99
100
AcDbVisualStyle
  2
GouraudWithEdges
 70
     3
 71
     2
 72
     2
 73
     1
 90
        2
 40
-0.6
 41
30.0
 62
     5
 63
     7
421
 16777215
 74
     1
 91
        4
 64
     7
 65
   257
 75
     1
175
     1
 42
1.0
 92
        0
 66
   257
 43
1.0
 76
     1
 77
     6
 78
     2
 67
     7
 79
     5
170
     0
171
     0
290
     0
174
     0
 93
        1
 44
0.0
173
     0
291
     1
 45
0.0
1001
ACAD
1000
AcDbSavedByObjectVersion
1070
     0
  0
VISUALSTYLE
  5
1AE
102
{ACAD_XDICTIONARY
360
1AF
102
}
102
{ACAD_REACTORS
330
99
102
}
330
99
100
AcDbVisualStyle
  2
Hidden
 70
     6
 71
     1
 72
     2
 73
     2
 90
        0
 40
-0.6
 41
-30.0
 62
     5
 63
     7
421
 16777215
 74
     2
 91
        2
 64
     7
 65
   257
 75
     2
175
     1
 42
40.0
 92
        0
 66
   257
 43
1.0
 76
     1
 77
     6
 78
     2
 67
     7
 79
     3
170
     0
171
     0
290
     0
174
     0
 93
        1
 44
0.0
173
     0
291
     0
 45
0.0
1001
ACAD
1000
AcDbSavedByObjectVersion
1070
     0
  0
VISUALSTYLE
  5
173
102
{ACAD_XDICTIONARY
360
D913
102
}
102
{ACAD_REACTORS
330
99
102
}
330
99
100
AcDbVisualStyle
  2
JitterOff
 70
    20
 71
     2
 72
     2
 73
     0
 90
        0
 40
-0.6
 41
-30.0
 62
     5
 63
     7
421
 16777215
 74
     1
 91
        4
 64
     7
 65
   257
 75
     1
175
     1
 42
1.0
 92
       10
 66
     7
 43
1.0
 76
     1
 77
     6
 78
     2
 67
     7
 79
     5
170
     0
171
     0
290
     0
174
     0
 93
        1
 44
0.0
173
     0
291
     1
 45
0.0
1001
ACAD
1000
AcDbSavedByObjectVersion
1070
     0
  0
VISUALSTYLE
  5
A7
102
{ACAD_XDICTIONARY
360
D90D
102
}
102
{ACAD_REACTORS
330
99
102
}
330
99
100
AcDbVisualStyle
  2
Linepattern
 70
    14
 71
     2
 72
     2
 73
     1
 90
        0
 40
-0.6
 41
-30.0
 62
     5
 63
     7
421
 16777215
 74
     1
 91
        4
 64
     7
 65
   257
 75
     7
175
     7
 42
1.0
 92
        8
 66
     7
 43
1.0
 76
     1
 77
     6
 78
     2
 67
     7
 79
     5
170
     0
171
     0
290
     0
174
     0
 93
        1
 44
0.0
173
     0
291
     1
 45
0.0
1001
ACAD
1000
AcDbSavedByObjectVersion
1070
     0
  0
VISUALSTYLE
  5
174
102
{ACAD_XDICTIONARY
360
D915
102
}
102
{ACAD_REACTORS
330
99
102
}
330
99
100
AcDbVisualStyle
  2
OverhangOff
 70
    21
 71
     2
 72
     2
 73
     0
 90
        0
 40
-0.6
 41
-30.0
 62
     5
 63
     7
421
 16777215
 74
     1
 91
        4
 64
     7
 65
   257
 75
     1
175
     1
 42
1.0
 92
        9
 66
     7
 43
1.0
 76
     1
 77
     6
 78
     2
 67
     7
 79
     5
170
     0
171
     0
290
     0
174
     0
 93
        1
 44
0.0
173
     0
291
     1
 45
0.0
1001
ACAD
1000
AcDbSavedByObjectVersion
1070
     0
  0
VISUALSTYLE
  5
A3
102
{ACAD_XDICTIONARY
360
D905
102
}
102
{ACAD_REACTORS
330
99
102
}
330
99
100
AcDbVisualStyle
  2
Realistic
 70
     8
 71
     2
 72
     2
 73
     1
 90
        0
 40
-0.6
 41
-30.0
 62
     5
 63
     7
421
 16777215
 74
     1
 91
        0
 64
     7
 65
   257
 75
     1
175
     1
 42
1.0
 92
        8
 66
     8
424
  7895160
 43
1.0
 76
     1
 77
     6
 78
     2
 67
     7
 79
     5
170
     0
171
     0
290
     0
174
     0
 93
       13
 44
0.0
173
     0
291
     0
 45
0.0
1001
ACAD
1000
AcDbSavedByObjectVersion
1070
     0
  0
VISUALSTYLE
  5
1B1
102
{ACAD_XDICTIONARY
360
1B2
102
}
102
{ACAD_REACTORS
330
99
102
}
330
99
100
AcDbVisualStyle
  2
Shaded
 70
    27
 71
     2
 72
     2
 73
     1
 90
        2
 40
-0.6
 41
30.0
 62
     5
 63
     7
421
 16777215
 74
     0
 91
        4
 64
     7
 65
   257
 75
     1
175
     1
 42
1.0
 92
        8
 66
   257
 43
1.0
 76
     1
 77
     6
 78
     2
 67
     8
425
  7895160
 79
     3
170
     0
171
     0
290
     0
174
     0
 93
        5
 44
0.0
173
     0
291
     0
 45
0.0
1001
ACAD
1000
AcDbSavedByObjectVersion
1070
     0
  0
VISUALSTYLE
  5
1B4
102
{ACAD_XDICTIONARY
360
1B5
102
}
102
{ACAD_REACTORS
330
99
102
}
330
99
100
AcDbVisualStyle
  2
Shaded with edges
 70
    26
 71
     2
 72
     2
 73
     1
 90
        2
 40
-0.6
 41
30.0
 62
     5
 63
     7
421
 16777215
 74
     1
 91
       10
 64
     7
 65
   257
 75
     2
175
     1
 42
1.0
 92
        8
 66
   257
 43
1.0
 76
     1
 77
     6
 78
     2
 67
     7
 79
     3
170
     0
171
     0
290
     0
174
     0
 93
        5
 44
0.0
173
     0
291
     0
 45
0.0
1001
ACAD
1000
AcDbSavedByObjectVersion
1070
     0
  0
VISUALSTYLE
  5
1B7
102
{ACAD_XDICTIONARY
360
1B8
102
}
102
{ACAD_REACTORS
330
99
102
}
330
99
100
AcDbVisualStyle
  2
Shades of Gray
 70
    23
 71
     2
 72
     2
 73
     3
 90
        0
 40
-0.6
 41
-30.0
 62
     5
 63
     7
421
 16777215
 74
     2
 91
        2
 64
     7
 65
     7
 75
     1
175
     1
 42
40.0
 92
        8
 66
     7
 43
1.0
 76
     1
 77
     6
 78
     2
 67
     7
 79
     3
170
     0
171
     0
290
     0
174
     0
 93
        1
 44
0.0
173
     0
291
     0
 45
0.0
1001
ACAD
1000
AcDbSavedByObjectVersion
1070
     0
  0
VISUALSTYLE
  5
1BA
102
{ACAD_XDICTIONARY
360
1BB
102
}
102
{ACAD_REACTORS
330
99
102
}
330
99
100
AcDbVisualStyle
  2
Sketchy
 70
    24
 71
     1
 72
     2
 73
     2
 90
        0
 40
-0.6
 41
-30.0
 62
     5
 63
     7
421
 16777215
 74
     2
 91
        2
 64
     7
 65
     7
 75
     1
175
     1
 42
40.0
 92
       11
 66
     7
 43
1.0
 76
     1
 77
     6
 78
     2
 67
     7
 79
     6
170
     0
171
     0
290
     0
174
     0
 93
        1
 44
0.0
173
     0
291
     0
 45
0.0
1001
ACAD
1000
AcDbSavedByObjectVersion
1070
     0
  0
VISUALSTYLE
  5
A6
102
{ACAD_XDICTIONARY
360
D90B
102
}
102
{ACAD_REACTORS
330
99
102
}
330
99
100
AcDbVisualStyle
  2
Thicken
 70
    13
 71
     2
 72
     2
 73
     1
 90
        0
 40
-0.6
 41
-30.0
 62
     5
 63
     7
421
 16777215
 74
     1
 91
        4
 64
     7
 65
   257
 75
     1
175
     1
 42
1.0
 92
       12
 66
     7
 43
1.0
 76
     1
 77
     6
 78
     2
 67
     7
 79
     5
170
     0
171
     0
290
     0
174
     0
 93
        1
 44
0.0
173
     0
291
     1
 45
0.0
1001
ACAD
1000
AcDbSavedByObjectVersion
1070
     0
  0
VISUALSTYLE
  5
1BD
102
{ACAD_XDICTIONARY
360
1BE
102
}
102
{ACAD_REACTORS
330
99
102
}
330
99
100
AcDbVisualStyle
  2
Wireframe
 70
     5
 71
     0
 72
     2
 73
     0
 90
        0
 40
-0.6
 41
-30.0
 62
     5
 63
     7
421
 16777215
 74
     1
 91
        4
 64
     7
 65
   257
 75
     1
175
     1
 42
1.0
 92
        0
 66
   257
 43
1.0
 76
     1
 77
     6
 78
     2
 67
     7
 79
     3
170
     0
171
     0
290
     0
174
     0
 93
        1
 44
0.0
173
     0
291
     0
 45
0.0
1001
ACAD
1000
AcDbSavedByObjectVersion
1070
     0
  0
VISUALSTYLE
  5
1C0
102
{ACAD_XDICTIONARY
360
1C1
102
}
102
{ACAD_REACTORS
330
99
102
}
330
99
100
AcDbVisualStyle
  2
X-Ray
 70
    25
 71
     2
 72
     2
 73
     1
 90
        1
 40
0.5
 41
-30.0
 62
     5
 63
     7
421
 16777215
 74
     1
 91
        0
 64
     7
 65
   257
 75
     1
175
     1
 42
1.0
 92
        8
 66
     7
 43
1.0
 76
     1
 77
     6
 78
     2
 67
     7
 79
     3
170
     0
171
     0
290
     0
174
     0
 93
       13
 44
0.0
173
     0
291
     0
 45
0.0
1001
ACAD
1000
AcDbSavedByObjectVersion
1070
     0
  0
DICTIONARYVAR
  5
F0
102
{ACAD_REACTORS
330
66
102
}
330
66
100
DictionaryVariables
280
     0
  1
1:1
  0
DICTIONARYVAR
  5
EF
102
{ACAD_REACTORS
330
66
102
}
330
66
100
DictionaryVariables
280
     0
  1
Netafim Detail
  0
DICTIONARYVAR
  5
89
102
{ACAD_REACTORS
330
66
102
}
330
66
100
DictionaryVariables
280
     0
  1
STANDARD
  0
DICTIONARYVAR
  5
67
102
{ACAD_REACTORS
330
66
102
}
330
66
100
DictionaryVariables
280
     0
  1
2
  0
DICTIONARYVAR
  5
D888
102
{ACAD_REACTORS
330
66
102
}
330
66
100
DictionaryVariables
280
     0
  1
1
  0
DICTIONARYVAR
  5
6B
102
{ACAD_REACTORS
330
66
102
}
330
66
100
DictionaryVariables
280
     0
  1
1
  0
DICTIONARYVAR
  5
14D
102
{ACAD_REACTORS
330
66
102
}
330
66
100
DictionaryVariables
280
     0
  1
0
  0
DICTIONARYVAR
  5
14E
102
{ACAD_REACTORS
330
66
102
}
330
66
100
DictionaryVariables
280
     0
  1
0
  0
DICTIONARYVAR
  5
6D8
102
{ACAD_REACTORS
330
66
102
}
330
66
100
DictionaryVariables
280
     0
  1
0
  0
DICTIONARYVAR
  5
D8DB
102
{ACAD_REACTORS
330
66
102
}
330
66
100
DictionaryVariables
280
     0
  1
1
  0
DICTIONARYVAR
  5
D8DC
102
{ACAD_REACTORS
330
66
102
}
330
66
100
DictionaryVariables
280
     0
  1
100.000000
  0
DICTIONARYVAR
  5
D8E9
102
{ACAD_REACTORS
330
66
102
}
330
66
100
DictionaryVariables
280
     0
  1
2
  0
XRECORD
  5
D8E8
102
{ACAD_REACTORS
330
18F
102
}
330
18F
100
AcDbXrecord
280
     1
1000
ADE02C001
1070
     1
1070
     0
1002
{
1002
}
1002
{
1002
}
1002
{
1002
}
1000

  0
XRECORD
  5
1FB
102
{ACAD_REACTORS
330
1FA
102
}
330
1FA
100
AcDbXrecord
280
     1
330
0
330
0
  0
DMSTYLIZEDENTITIESTABLE
  5
189
102
{ACAD_REACTORS
330
179
102
}
330
179
100
AcMapDMStylizedEntitiesTable
 70
     1
  0
DICTIONARY
  5
18A
102
{ACAD_REACTORS
330
179
102
}
330
179
100
AcDbDictionary
280
     1
281
     1
  0
DATATABLE
  5
17D
102
{ACAD_REACTORS
330
179
102
}
330
179
100
AcDbDataTable
 70
     2
 90
        4
 91
       15
  1

 92
        3
  2
OriginalClassName
  3
AcMapDMDefaultStyle
  3
AcMapDMEntityStyle
  3
AcMapDMRasterStyle
  3
AcMapDMSEAnnotationStyle
  3
AcMapDMSEHatchStyle
  3
AcMapDMSETextStyle
  3
AcMapDMThematicStyle
  3
AcMapDMBaseElement
  3
AcMapDMAttachedDwgsQueryElement
  3
AcMapDMFeatureElement
  3
AcMapDMLayerElement
  3
AcMapDMCurrentDwgQueryElement
  3
AcMapDMRasterElement
  3
AcMapDMTopoElement
  3
AcMapDMTopoQueryElement
 92
        3
  2
ProxyDisplayName
  3
Default
  3
Entity
  3
Raster
  3
Annotation
  3
Hatch
  3
Text
  3
Thematic
  3
Map Base
  3
Ade Query
  3
Feature Class
  3
Layer
  3
Ade Project Query
  3
Raster
  3
Topology
  3
Topology Query
 92
        1
  2
CustomObjectType
 93
        2
 93
        2
 93
        2
 93
        2
 93
        2
 93
        2
 93
        2
 93
        1
 93
        1
 93
        1
 93
        1
 93
        1
 93
        1
 93
        1
 93
        1
 92
        1
  2
StyleCoExistanceType
 93
        1
 93
        1
 93
        1
 93
        1
 93
        1
 93
        1
 93
        2
 93
        0
 93
        0
 93
        0
 93
        0
 93
        0
 93
        0
 93
        0
 93
        0
  0
DMMAPMANAGER
  5
17A
102
{ACAD_REACTORS
330
179
102
}
330
179
100
AcDbDictionary
281
     1
  3
DisplayMap1
350
17F
100
AcDbDictionaryWithDefault
340
17F
100
AcMapDMMapManager
 70
     1
340
17F
  0
DMSTYLELIBRARY
  5
17B
102
{ACAD_REACTORS
330
179
102
}
330
179
100
AcMapDMStyleLibrary
 70
     1
 70
     1
360
17C
  0
DICTIONARY
  5
17E
102
{ACAD_REACTORS
330
179
102
}
330
179
100
AcDbDictionary
281
     1
  0
DICTIONARY
  5
6F0
330
22
100
AcDbDictionary
280
     1
281
     1
  3
AcPublish_PlotSettingsOverride
360
D88D
  3
ADSK_XREC_LAYOUTTHUMBNAIL
360
6F1
  0
DICTIONARY
  5
D8F0
330
97
100
AcDbDictionary
280
     1
281
     1
  3
ACAD_XREC_ROUNDTRIP
360
D8F1
  0
DICTIONARY
  5
D8EE
330
96
100
AcDbDictionary
280
     1
281
     1
  3
ACAD_XREC_ROUNDTRIP
360
D8EF
  0
DICTIONARY
  5
110
330
98
100
AcDbDictionary
280
     1
281
     1
  3
ACAD_XREC_ROUNDTRIP
360
D8F2
  3
BUMPTILE
360
112
  3
DIFFUSETILE
360
111
  3
OPACITYTILE
360
113
  3
REFLECTIONTILE
360
114
  0
DICTIONARY
  5
D8A9
330
181
100
AcDbDictionary
280
     1
281
     1
  3
ACAD_ROUNDTRIP_2008_TABLESTYLE_CELLSTYLEMAP
360
D8EB
  3
ACAD_XREC_ROUNDTRIP
360
D919
  0
DICTIONARY
  5
104
330
87
100
AcDbDictionary
280
     1
281
     1
  3
ACAD_ROUNDTRIP_2008_TABLESTYLE_CELLSTYLEMAP
360
D8EA
  3
ACAD_XREC_ROUNDTRIP
360
D8ED
  0
DICTIONARY
  5
D8FD
330
9F
100
AcDbDictionary
280
     1
281
     1
  3
ACAD_XREC_ROUNDTRIP
360
D8FE
  0
DICTIONARY
  5
D901
330
A1
100
AcDbDictionary
280
     1
281
     1
  3
ACAD_XREC_ROUNDTRIP
360
D902
  0
DICTIONARY
  5
D8FF
330
A0
100
AcDbDictionary
280
     1
281
     1
  3
ACAD_XREC_ROUNDTRIP
360
D900
  0
DICTIONARY
  5
D8FB
330
9E
100
AcDbDictionary
280
     1
281
     1
  3
ACAD_XREC_ROUNDTRIP
360
D8FC
  0
DICTIONARY
  5
D909
330
A5
100
AcDbDictionary
280
     1
281
     1
  3
ACAD_XREC_ROUNDTRIP
360
D90A
  0
DICTIONARY
  5
D911
330
A9
100
AcDbDictionary
280
     1
281
     1
  3
ACAD_XREC_ROUNDTRIP
360
D912
  0
DICTIONARY
  5
D903
330
A2
100
AcDbDictionary
280
     1
281
     1
  3
ACAD_XREC_ROUNDTRIP
360
D904
  0
DICTIONARY
  5
D907
330
A4
100
AcDbDictionary
280
     1
281
     1
  3
ACAD_XREC_ROUNDTRIP
360
D908
  0
DICTIONARY
  5
D917
330
175
100
AcDbDictionary
280
     1
281
     1
  3
ACAD_XREC_ROUNDTRIP
360
D918
  0
DICTIONARY
  5
D90F
330
A8
100
AcDbDictionary
280
     1
281
     1
  3
ACAD_XREC_ROUNDTRIP
360
D910
  0
DICTIONARY
  5
D8F3
330
9A
100
AcDbDictionary
280
     1
281
     1
  3
ACAD_XREC_ROUNDTRIP
360
D8F4
  0
DICTIONARY
  5
D8F5
330
9B
100
AcDbDictionary
280
     1
281
     1
  3
ACAD_XREC_ROUNDTRIP
360
D8F6
  0
DICTIONARY
  5
D8F7
330
9C
100
AcDbDictionary
280
     1
281
     1
  3
ACAD_XREC_ROUNDTRIP
360
D8F8
  0
DICTIONARY
  5
D8F9
330
9D
100
AcDbDictionary
280
     1
281
     1
  3
ACAD_XREC_ROUNDTRIP
360
D8FA
  0
DICTIONARY
  5
1AF
330
1AE
100
AcDbDictionary
280
     1
281
     1
  3
ACAD_XREC_ROUNDTRIP
360
1B0
  0
DICTIONARY
  5
D913
330
173
100
AcDbDictionary
280
     1
281
     1
  3
ACAD_XREC_ROUNDTRIP
360
D914
  0
DICTIONARY
  5
D90D
330
A7
100
AcDbDictionary
280
     1
281
     1
  3
ACAD_XREC_ROUNDTRIP
360
D90E
  0
DICTIONARY
  5
D915
330
174
100
AcDbDictionary
280
     1
281
     1
  3
ACAD_XREC_ROUNDTRIP
360
D916
  0
DICTIONARY
  5
D905
330
A3
100
AcDbDictionary
280
     1
281
     1
  3
ACAD_XREC_ROUNDTRIP
360
D906
  0
DICTIONARY
  5
1B2
330
1B1
100
AcDbDictionary
280
     1
281
     1
  3
ACAD_XREC_ROUNDTRIP
360
1B3
  0
DICTIONARY
  5
1B5
330
1B4
100
AcDbDictionary
280
     1
281
     1
  3
ACAD_XREC_ROUNDTRIP
360
1B6
  0
DICTIONARY
  5
1B8
330
1B7
100
AcDbDictionary
280
     1
281
     1
  3
ACAD_XREC_ROUNDTRIP
360
1B9
  0
DICTIONARY
  5
1BB
330
1BA
100
AcDbDictionary
280
     1
281
     1
  3
ACAD_XREC_ROUNDTRIP
360
1BC
  0
DICTIONARY
  5
D90B
330
A6
100
AcDbDictionary
280
     1
281
     1
  3
ACAD_XREC_ROUNDTRIP
360
D90C
  0
DICTIONARY
  5
1BE
330
1BD
100
AcDbDictionary
280
     1
281
     1
  3
ACAD_XREC_ROUNDTRIP
360
1BF
  0
DICTIONARY
  5
1C1
330
1C0
100
AcDbDictionary
280
     1
281
     1
  3
ACAD_XREC_ROUNDTRIP
360
1C2
  0
DMMAP
  5
17F
102
{ACAD_REACTORS
330
17A
330
182
102
}
330
17A
100
AcMapDMMap
 70
     1
  1
Default
 70
     1
330
0
100
AcMapDMMap
 70
     1
 90
        1
360
182
 90
        1
 40
1.797693134862314E+99
 70
     1
100
AcMapDMMap
 70
     2
 70
     0
 40
1.797693134862314E+99
290
     1
290
     1
 40
1.0
 40
3.0
  1
Legend
 90
        1
 40
1.797693134862314E+99
  1

 70
     0
 40
1.0
 70
     1
 90
        0
 90
        1
360
183
  0
DMSTYLECATEGORY
  5
17C
102
{ACAD_REACTORS
330
17B
102
}
330
17B
100
AcMapDMStyleCategory
 70
     1
  1
Display Styles
 70
     0
  0
PLOTSETTINGS
  5
D88D
102
{ACAD_REACTORS
330
6F0
102
}
330
6F0
100
AcDbPlotSettings
  1

  2
Adobe PDF
  4
Letter
  6

 40
3.174999952316284
 41
3.174999952316284
 42
3.175003051757812
 43
3.17498779296875
 44
215.8999938964844
 45
279.3999938964844
 46
14.27790312490942
 47
10.059772090804
 48
0.0
 49
0.0
140
0.0
141
0.0
142
1.0
143
1.0
 70
 11940
 72
     0
 73
     1
 74
     1
  7
NETAFIM.ctb
 75
     0
147
1.157762429933976
 76
     0
 77
     2
 78
   300
148
22.74257348782844
149
0.0034861366045241
1001
ACAD_PSEXT
1000
Adobe PDF
1000
Adobe PDF Converter
1000
My Documents\*.pdf
1000

1070
     0
  0
XRECORD
  5
6F1
102
{ACAD_REACTORS
330
6F0
102
}
330
6F0
100
AcDbXrecord
280
     1
310
28000000000100008F0000000100080000000000008F0000000000000000000000010000000000000000000000000000FFFFFF000000000000000000000000000000000000000000000000000000000000000000330000006600000099000000CC000000FF00000000330000333300006633000099330000CC330000FF3300
310
0000660000336600006666000099660000CC660000FF66000000990000339900006699000099990000CC990000FF99000000CC000033CC000066CC000099CC0000CCCC0000FFCC000000FF000033FF000066FF000099FF0000CCFF0000FFFF000000003300330033006600330099003300CC003300FF003300003333003333
310
33006633330099333300CC333300FF33330000663300336633006666330099663300CC663300FF66330000993300339933006699330099993300CC993300FF99330000CC330033CC330066CC330099CC3300CCCC3300FFCC330000FF330033FF330066FF330099FF3300CCFF3300FFFF330000006600330066006600660099
310
006600CC006600FF00660000336600333366006633660099336600CC336600FF33660000666600336666006666660099666600CC666600FF66660000996600339966006699660099996600CC996600FF99660000CC660033CC660066CC660099CC6600CCCC6600FFCC660000FF660033FF660066FF660099FF6600CCFF6600
310
FFFF660000009900330099006600990099009900CC009900FF00990000339900333399006633990099339900CC339900FF33990000669900336699006666990099669900CC669900FF66990000999900339999006699990099999900CC999900FF99990000CC990033CC990066CC990099CC9900CCCC9900FFCC990000FF99
310
0033FF990066FF990099FF9900CCFF9900FFFF99000000CC003300CC006600CC009900CC00CC00CC00FF00CC000033CC003333CC006633CC009933CC00CC33CC00FF33CC000066CC003366CC006666CC009966CC00CC66CC00FF66CC000099CC003399CC006699CC009999CC00CC99CC00FF99CC0000CCCC0033CCCC0066CC
310
CC0099CCCC00CCCCCC00FFCCCC0000FFCC0033FFCC0066FFCC0099FFCC00CCFFCC00FFFFCC000000FF003300FF006600FF009900FF00CC00FF00FF00FF000033FF003333FF006633FF009933FF00CC33FF00FF33FF000066FF003366FF006666FF009966FF00CC66FF00FF66FF000099FF003399FF006699FF009999FF00CC
310
99FF00FF99FF0000CCFF0033CCFF0066CCFF0099CCFF00CCCCFF00FFCCFF0000FFFF0033FFFF0066FFFF0099FFFF00CCFFFF00FFFFFF00000000000D0D0D001A1A1A00282828003535350043434300505050005D5D5D006B6B6B00787878008686860093939300A1A1A100AEAEAE00BBBBBB00C9C9C900D6D6D600E4E4E400
310
F1F1F100FFFFFF0000000000000000000000000000000000000000000000000000000000000000000000000000000000E2E2E2E2E2E2E2E2E2E2E2E2E2E2E2E2E2E2E2E2E2E2E2E2E2E2E2E2BEBEBEBEBEBEBEBEBEBEBEBEBEBEBEBEBEBEBEBEBEBEBEBEBEBEBEBEBEBEBEBEBEBEBEBEBEBEBEBEBEBEBEBEBEBEBEBEBEBEBE
310
BEBEBEBEBEBEBEBEBEBEBEBEBEBEBEBEBEBEBEBEBEBEBEBEBEBEBEBEBEBEBEBEBEBEBEBEBEBEBEBEBEBEBEBEBEBEBEBEBEBEBEBEBEBEBEBEBEBEBEBEBEBEBEBEBEBEBEBEBEBEBEBEBEBEBEBEBEBEBEBEBEBEBEBEBEBEBEBEBEBEBEBEBEBEBEBEBEBEBEBEBEBEBEBEBEBEBEBEBEBEBEBEBEBEBEBEBEBEBEBEBEBEBEBEBEBEBE
310
BEBEBEBEBEBEBEBEBEBEBEBEBEBEBEBEBEBEBEBEBEBEE2E2E2E2E2E2E2E2E2E2E2E2E2E2E2E2E2E2E2E2E2E2E2E2E2E2E2E2E2E2E2E2E2E2E2E2E2E2E2E2E2E2E2E2E2E2E2E2E2E2E2E2E2E2E2E2BEE2E2E2E2E2E2E2E2E2E2E2E2E2E2E2E2E2BEE2E2E2E2E2E2E2E2E2E2E2E2E2E2E2E2E2E2E2E2E2E2E2E2E2E2E2E2E2E2
310
E2E2E2E2E2E2E2E2E2E2E2E2E2E2E2E2E2E2E2E2E2E2E2E2E2E2E2E2E2E2E2E2E2E2E2E2E2E2E2E2E2E2E2E2E2E2E2E2E2E2E2E2E2E2E2E2E2E2E2E2E2E2E2E2E2E2E2E2E2E2E2E2E2E2E2E2E2E2E2E2E2E2E2E2E2E2E2E2E2E2E2E2E2E2E2E2E2E2E2E2E2E2E2E2E2E2E2E2E2E2E2E2E2E2E2E2E2E2E2E2E2E2E2E2E2E2E2
310
E2E2E2E2E2E2E2E2E2E2E2E2E2E2E2E2E2E2E2E2E2E2E2BEE2E2E2E2E2E2E2E2E2E2E2E2E2E2E2E2E2E2E2E2E2E2E2E2E2E2E2E2E2E2E2E2E2E2E2E2E2E2E2E2E2E2E2E2E2E2E2E2E2E2E2E2E2E2E2E2BEE2E2E2E2E2E2E2E2E2E2E2E2E2E2E2E2E2BEE2E2E2E2E2C3C3C3C3C3C3E2E2E2E2E2E2E2E2E2E2E2E2E2E2E2E2E2
310
E2E2E2E2E2E2E2E2E2E2E2E2E2E2E2E2E2E2E2E2E2E2E2E2E2E2E2E2E2E2E2E2E2E2E2E2E2E2E2E2E2E2E2E2E2E2E2E2E2E2E2E2E2E2E2E2E2E2E2E2E2E2E2E2E2E2E2E2E2E2E2E2E2E2E2E2E2E2E2E2E2E2E2E2E2E2E2E2E2E2E2E2E2E2E2E2E2E2E2E2E2E2E2E2E2E2E2E2E2E2E2E2E2E2E2E2E2E2E2E2E2E2E2E2E2E2E2
310
E2E2E2E2E2E2E2E2E2E2E2E2E2E2E2E2E2E2E2E2E2E2E2E2E2BEE2E2E2E2E2E2E2E2E2E2E2E2E2E2E2E2E2E2E2E2E2E2E2E2E2E2E2E2E2E2E2E2E2E2E2E2E2E2E2E2E2E2E2E2E2E2E2E2E2E2E2E2E2E2E2E2BEE2E2E2E2E2E2E2E2E2E2E2E2E2E2E2E2E2BEE2E2E2C3C3E2E2E2E2E2C3C3E2E2E2E2E2DCDCDCDCDCE2E2DCDC
310
DCE2E2DCDCDCDCDCDCDCDCE2E2E2E2E2E2E2E2E2E2E2E2E2E2E2E2E2E2E2E2E2E2E2E2E2E2E2E2E2E2E2E2E2E2E2E2E2E2E2E2E2E2E2E2E2E2E2E2E2E2E2E2E2E2E2E2E2E2E2E2E2E2E2E2E2E2E2E2E2E2E2E2E2E2E2E2E2E2E2E2E2E2E2E2E2E2E2E2E2E2E2E2E2E2E2E2E2E2E2E2E2E2E2E2E2E2E2E2E2E2E2E2E2E2E2E2
310
DCDCDCDCDCDCDCDCDCE2E2E2E2E2DCDCDCDCDCDCDCE2DCE2E2E2E2BEE2E2E2E2E2E2E2E2E2E2E2E2E2E2E2E2E2E2E2E2E2E2E2E2E2E2E2E2E2E2E2E2E2E2E2E2E2E2E2E2E2E2E2E2E2E2E2E2E2E2E2E2E2E2E2E2BEE2E2E2E2E2E2E2E2E2E2E2E2E2E2E2E2E2BEE2E2E2C3E2E2E2E2E2E2E2C3C3E2E2E2E2DCDCDCDCDCE2E2
310
DCDCDCE2E2DCDCDCDCDCDCDCDCE2E2E2E2E2E2E2E2E2E2E2E2E2E2E2E2E2E2E2E2E2E2E2E2E2E2E2E2E2E2E2E2E2E2E2E2E2E2E2E2E2E2E2E2E2E2E2E2E2E2E2E2E2E2E2E2E2E2E2E2E2E2E2E2E2E2E2E2E2E2E2E2E2E2E2E2E2E2E2E2E2E2E2E2E2E2E2E2E2E2E2E2E2E2E2E2E2E2E2E2E2E2E2E2E2E2E2E2E2E2E2E2E2E2
310
E2E2DCDCDCDCDCDCDCDCE2E2DCDCE2E2DCDCDCE2DCDCDCDCDCE2E2E2E2BEE2E2E2E2E2E2E2E2E2E2E2E2E2E2E2E2E2E2E2E2E2E2E2E2E2E2E2E2E2E2E2E2E2E2E2E2E2E2E2E2E2E2E2E2E2E2E2E2E2E2E2E2E2E2E2E2BEE2BEBEE2E2BEBEBEBEBEBEBEBEBEBEE2E2BEE2E2C3E2DCDCDCDCDCDCE2E2C3E2E2E2E2DCDCDCDCDC
310
DCDCDCDCDCE2E2DCDCDCDCDCDCDCDCE2E2E2E2E2E2E2E2E2E2E2E2E2E2E2E2E2E2E2E2E2E2E2E2E2E2E2E2E2E2E2E2E2E2E2E2E2E2E2E2E2E2E2E2E2E2E2E2E2E2E2E2E2E2E2E2E2E2E2E2E2E2E2E2E2E2E2E2E2E2E2E2E2E2E2E2E2E2E2E2E2E2E2E2E2E2E2E2E2E2E2E2E2E2E2E2E2E2E2E2E2E2E2E2E2E2E2E2E2E2E2E2
310
E2E2E2E2DCDCDCDCDCDCDCDCE2E2E2E2E2E2DCDCDCDCDCDCDCDCE2E2E2E2E2BEE2E2E2E2E2E2E2E2E2E2E2E2E2E2E2E2E2E2E2E2E2E2E2E2E2E2E2E2E2E2E2E2E2E2E2E2E2E2E2E2E2E2E2E2E2E2E2E2E2E2E2E2E2E2E2E2BEE2BEBEE2E2BEBEBEBEBEBEBEBEBEBEE2E2BEE2E2C3E2DCE2DCDCE2DCE2E2E2C3E2E2E2E2E2E2
310
E2E2E2E2E2E2E2E2E2E2E2E2E2E2E2E2E2E2E2E2E2E2E2E2E2E2E2E2E2E2E2E2E2E2E2E2E2E2E2E2E2E2E2E2E2E2E2E2E2E2E2E2E2E2E2E2E2E2E2E2E2E2E2E2E2E2E2E2E2E2E2E2E2E2E2E2E2E2E2E2E2E2E2E2E2E2E2E2E2E2E2E2E2E2E2E2E2E2E2E2E2E2E2E2E2E2E2E2E2E2E2E2E2E2E2E2E2E2E2E2E2E2E2E2E2E2E2
310
E2E2E2E2E2E2E2E2E2E2E2E2E2E2E2E2E2E2E2E2E2E2E2E2E2E2E2E2E2E2E2E2E2BEE2E2E2E2E2E2E2E2E2E2E2E2E2E2E2E2E2E2E2E2E2E2E2E2E2E2E2E2E2E2E2E2E2E2E2E2E2E2E2E2E2E2E2E2E2E2E2E2E2E2E2E2E2E2E2E2BEE2BEBEE2E2BEBEBEBEBEBEBEBEBEBEE2E2BEE2E2C3E2DCE2DCDCE2DCE2E2E2C3C3C3DCDC
310
DCDCDCDCDCDCDCDCDCDCDCDCDCDCDCDCDCDCDCDCDCDCDCDCC3C3DCDCDCDCDCDCDCDCDCDCDCDCDCDCDCC3DCDCDCDCDCDCDCDCDCDCDCDCDCDCDCDCDCDCDCDCDCDCDCDCDCDCDCDCDCC3C3DCDCDCDCDCDCDCDCDCDCDCC3C3DCDCDCDCDCDCDCC3DCDCDCDCDCDCDCDCDCDCDCDCC3C3C3C3C3C3C3C3C3C3C3C3C3C3C3C3C3C3C3C3C3
310
C3C3C3C3C3C3C3C3C3C3C3C3C3C3C3C3C3C3C3C3C3C3C3C3C3C3C3C3C3C3C3E2E2E2E2BEE2E2E2E2E2E2E2E2E2E2E2E2E2E2E2E2E2E2E2E2E2E2E2E2E2E2E2E2E2E2E2E2E2E2E2E2E2E2E2E2E2E2E2E2E2E2E2E2E2E2E2E2E2E2E2E2BEE2BEBEE2E2BEBEBEBEBEBEBEBEBEBEE2E2BEE2E2C3E2DCE2DCDCE2DCE2E2E2C3E2E2
310
DCDCDCDCDCDCDCDCDCDCDCDCDCDCDCDCDCDCDCDCDCDCDCDCDCDCE2E2DCDCDCDCDCDCDCDCDCDCDCDCDCDCDCE2DCDCDCDCDCDCDCDCDCDCDCDCDCDCDCDCDCDCDCDCDCDCDCDCDCDCDCDCDCE2E2DCDCDCDCDCDCDCDCDCDCDCE2E2DCDCDCDCDCDCDCE2DCDCDCDCDCDCDCDCDCDCDCDCE2E2E2E2E2E2E2E2E2E2E2E2E2E2E2E2E2E2E2
310
E2E2E2E2E2E2E2E2E2E2E2E2E2E2E2E2E2E2E2E2E2E2E2E2E2E2E2E2E2E2E2E2E2E2E2E2E2BEE2E2E2E2E2E2E2E2E2E2E2E2E2E2E2E2E2E2E2E2E2E2E2E2E2E2E2E2E2E2E2E2E2E2E2E2E2E2E2E2E2E2E2E2E2E2E2E2E2E2E2E2E2E2E2E2BEE2BEBEE2E2BEBEBEBEBEBEBEBEBEBEE2E2BEE2E2C3E2DCDCDCDCDCDCE2E2C3C3
310
E2E2DCDCDCDCDCDCDCDCDCDCDCDCDCDCDCDCDCDCDCDCDCDCDCDCDCDCE2E2DCDCDCDCDCDCDCDCDCDCDCDCDCDCDCE2DCDCDCDCDCDCDCDCDCDCDCDCDCDCDCDCDCDCDCDCDCDCDCDCDCDCDCDCDCE2E2DCDCDCDCDCDCDCDCDCDCDCE2E2DCDCDCDCDCDCDCE2DCDCDCDCDCDCDCDCDCDCDCDCE2E2E2E2E2E2E2E2E2E2E2E2E2E2E2E2E2
310
E2E2E2E2E2E2E2E2E2E2BEBEBEE2E2E2E2E2E2E2E2E2E2E2E2E2E2E2E2E2E2E2E2E2E2E2E2E2E2BEE2E2E2E2E2E2E2E2E2E2E2E2E2E2E2E2E2E2E2E2E2E2E2E2E2E2E2E2E2E2E2E2E2E2E2E2E2E2E2E2E2E2E2E2E2E2E2E2E2E2E2E2E2E2E2E2BEE2BEBEE2E2BEBEBEBEBEBEBEBEBEBEE2E2BEE2E2C3C3E2E2E2E2E2E2E2E2
310
C3E2E2E2DCDCDCDCDCDCDCDCDCDCDCDCDCDCDCDCDCDCDCDCDCDCDCDCDCDCE2E2DCDCDCDCDCDCDCDCDCDCDCDCDCDCDCE2DCDCDCDCDCDCDCDCDCDCDCDCDCDCDCDCDCDCDCDCDCDCDCDCDCDCDCDCDCE2E2DCDCDCDCDCDCDCDCDCDCDCE2E2DCDCDCDCDCDCDCE2DCDCDCDCDCDCDCDCDCDCDCDCE2E2E2E2E2E2E2E2E2E2E2E2E2E2E2
310
E2E2E2E2E2E2E2E2E2E2E2E2BEBEBEE2E2E2E2E2E2E2E2E2E2E2E2E2E2E2E2E2E2E2E2E2E2E2E2E2E2BEE2E2E2E2E2E2E2E2E2E2E2E2E2E2E2E2E2E2E2E2E2E2E2E2E2E2E2E2E2E2E2E2E2E2E2E2E2E2E2E2E2E2E2E2E2E2E2E2E2E2E2E2E2E2E2E2BEE2BEBEE2E2BEBEBEBEBEBEBEBEBEBEE2E2BEE2E2E2C3E2E2E2E2E2E2
310
E2C3E2E2E2E2DCDCDCDCDCDCDCDCDCDCDCDCDCDCDCDCDCDCDCDCDCDCDCDCDCDCE2E2DCDCDCDCDCDCDCDCDCDCDCDCDCDCDCE2DCDCDCDCDCDCDCDCDCDCDCDCDCDCDCDCDCDCDCDCDCDCDCDCDCDCDCDCDCE2E2DCDCDCDCDCDCDCDCDCDCDCE2E2DCDCDCDCDCDCDCE2DCDCDCDCDCDCDCDCDCDCDCDCE2E2E2E2E2E2E2E2E2E2E2E2E2
310
E2E2E2E2E2E2E2E2E2E2E2E2E2E2BEBEBEE2E2E2E2E2E2E2E2E2E2E2E2E2E2E2E2E2E2E2E2E2E2E2E2E2E2BEE2E2E2E2E2E2E2E2E2E2E2E2E2E2E2E2E2E2E2E2E2E2E2E2E2E2E2E2E2E2E2E2E2E2E2E2E2E2E2E2E2E2E2E2E2E2E2E2E2E2E2E2E2E2E2E2BEE2BEBEE2E2BEBEBEBEBEBEBEBEBEBEE2E2BEE2E2E2E2C3C3E2E2
310
E2C3C3E2E2E2E2E2DCDCDCDCDCDCDCDCDCDCDCDCDCDCDCDCDCDCDCDCDCDCDCDCDCDCE2E2DCDCDCDCDCDCDCDCDCDCDCDCDCDCDCE2DCDCDCDCDCDCDCDCDCDCDCDCDCDCDCDCDCDCDCDCDCDCDCDCDCDCDCDCDCE2E2DCDCDCDCDCDCDCDCDCDCDCE2E2DCDCDCDCDCDCDCE2DCDCDCDCDCDCDCDCDCDCDCDCE2E2E2E2E2E2E2E2E2E2E2
310
E2E2E2E2E2E2E2E2E2E2E2E2E2E2E2E2E2BEBEBEBEBEBEBEBEBEBEBEBEBEBEBEBEBEBEBEBEBEBEE2E2E2E2E2E2BEE2E2E2E2E2E2E2E2E2E2E2E2E2E2E2E2E2E2E2E2E2E2E2E2E2E2E2E2E2E2E2E2E2E2E2E2E2E2E2E2E2E2E2E2E2E2E2E2E2E2E2E2E2E2E2E2BEE2BEBEE2E2BEBEBEBEBEBEBEBEBEBEE2E2BEE2E2E2E2E2E2
310
C3C3C3C3E2E2E2E2E2E2E2E2E2E2E2E2E2E2E2E2E2E2E2E2E2E2E2E2E2E2E2E2E2E2E2E2E2E2E2E2E2E2E2E2E2E2E2E2E2E2E2E2E2E2E2E2E2E2E2E2E2E2E2E2E2E2E2E2E2E2E2E2E2E2E2E2E2E2E2E2E2E2E2E2E2E2E2E2E2E2E2E2E2E2E2E2E2E2E2E2E2E2E2E2E2E2E2E2E2E2E2E2E2E2E2E2E2E2E2E2E2E2E2E2E2E2E2
310
E2E2E2E2E2E2E2E2E2E2E2E2E2E2E2E2E2E2E2BEBEBEBEBEBEBEBEBEBEBEBEBEBEBEBEBEBEBEBEBEBEE2E2E2E2E2E2BEE2E2E2E2E2E2E2E2E2E2E2E2E2E2E2E2E2E2E2E2E2E2E2E2E2E2E2E2E2E2E2E2E2E2E2E2E2E2E2E2E2E2E2E2E2E2E2E2E2E2E2E2E2E2E2E2BEE2BEBEE2E2BEBEBEBEBEBEBEBEBEBEE2E2BEE2E2E2E2
310
E2E2E2E2E2E2E2E2E2E2E2E2E2E2E2E2E2E2E2E2E2E2E2E2E2E2E2E2E2E2E2E2E2E2E2E2E2E2E2E2E2E2E2E2E2E2E2E2E2E2E2E2E2E2E2E2E2E2E2E2E2E2E2E2E2E2E2E2E2E2E2E2E2E2E2E2E2E2E2E2E2E2E2E2E2E2E2E2E2E2E2E2E2E2E2E2E2E2E2E2E2E2E2E2E2E2E2E2E2E2E2E2E2E2E2E2E2E2E2E2E2E2E2E2E2E2E2
310
E2E2E2E2E2E2E2E2E2E2E2E2E2E2E2E2E2E2E2E2E2E2E2BEE2BEBEBEBEBEBEBEBEBEBEBEBEBEBEBEBEBEBEBEBEE2E2E2E2BEE2E2E2E2E2E2E2E2E2E2E2E2E2E2E2E2E2E2E2E2E2E2E2E2E2E2E2E2E2E2E2E2E2E2E2E2E2E2E2E2E2E2E2E2E2E2E2E2E2E2E2E2E2E2E2E2BEE2BEBEE2E2BEBEBEBEBEBEBEBEBEBEE2E2BEE2E2
310
E2E2E2E2E2E2E2E2E2E2E2E2E2E2E2E2E2E2E2E2E2E2E2E2E2E2E2E2E2E2E2E2E2E2E2E2E2E2E2E2E2E2E2E2E2E2E2E2E2E2E2E2E2E2E2E2E2E2E2E2E2E2E2E2E2E2E2E2E2E2E2E2E2E2E2E2E2E2E2E2E2E2E2E2E2E2E2E2E2E2E2E2E2E2E2E2E2E2E2E2E2E2E2E2E2E2E2E2E2E2E2E2E2E2E2E2E2E2E2E2E2E2E2E2E2E2E2
310
E2E2E2E2E2E2E2E2E2E2E2E2E2E2E2E2E2E2E2E2E2E2E2E2E2BEE2BEBEBEBEBEBEBEBEBEBEBEBEBEBEBEBEBEBEBEBEE2E2E2E2BEE2E2E2E2E2E2E2E2E2E2E2E2E2E2E2E2E2E2E2E2E2E2E2E2E2E2E2E2E2E2E2E2E2E2E2E2E2E2E2E2E2E2E2E2E2E2E2E2E2E2E2E2E2E2E2E2BEE2E2E2E2E2BEBEBEBEBEBEBEBEBEBEE2E2BE
310
E2E2E2E2E2E2E2E2E2E2E2E2E2E2E2E2E2E2E2E2E2E2E2E2E2E2E2E2E2E2E2E2E2E2E2E2E2E2E2E2E2E2E2E2E2E2E2E2E2E2E2E2E2E2E2E2E2E2E2E2E2E2E2E2E2E2E2E2E2E2E2E2E2E2E2E2E2E2E2E2E2E2E2E2E2E2E2E2E2E2E2E2E2E2E2E2E2E2E2E2E2E2E2E2E2E2E2E2E2E2E2E2E2E2E2E2E2E2E2E2E2E2E2E2E2E2E2
310
E2E2E2E2E2E2E2E2E2E2E2E2E2E2E2E2E2E2E2E2E2E2E2E2E2E2E2E2E2E2E2E2E2E2E2E2E2E2E2E2E2E2E2E2E2E2E2E2E2E2E2E2E2BEE2E2E2E2E2E2E2E2E2E2E2E2E2E2E2E2E2E2E2E2E2E2E2E2E2E2E2E2E2E2E2E2E2E2E2E2E2E2E2E2E2E2E2E2E2E2E2E2E2E2E2E2E2E2E2E2BEE2E2E2E2E2BEBEBEBEBEBEBEBEBEBEE2
310
E2BEE2E2E2E2E2E2E2E2E2E2E2E2E2E2E2E2E2E2E2E2E2E2E2E2E2E2E2E2E2E2E2E2E2E2E2E2E2E2E2E2E2E2E2E2E2E2E2E2E2E2E2E2E2E2E2E2E2E2E2E2E2E2E2E2E2E2E2E2E2E2E2E2E2E2E2E2E2E2E2E2E2E2E2E2E2E2E2E2E2E2E2E2E2E2E2E2E2E2E2E2E2E2E2E2E2E2E2E2E2E2E2E2E2E2E2E2E2E2E2E2E2E2E2E2E2
310
E2E2E2E2E2E2E2E2E2E2E2E2E2E2E2E2E2E2E2E2E2E2E2E2E2E2E2E2E2E2E2E2E2E2E2E2E2E2E2E2E2E2E2E2E2E2E2E2E2E2E2E2E2E2E2BEE2E2E2E2E2E2E2E2E2E2E2E2E2E2E2E2E2E2E2E2E2E2E2E2E2E2E2E2E2E2E2E2E2E2E2E2E2E2E2E2E2E2E2E2E2E2E2E2E2E2E2E2E2E2E2E2BEE2E2E2E2E2BEBEBEBEBEBEBEBEBE
310
BEE2E2BEE2E2E2E2E2E2E2E2E2E2E2E2E2E2E2E2E2E2E2E2E2E2E2E2E2E2E2E2E2E2E2E2E2E2E2E2E2E2E2E2E2E2E2E2E2E2E2E2E2E2E2E2E2E2E2E2E2E2E2E2E2E2E2E2E2E2E2E2E2E2E2E2E2E2E2E2E2E2E2E2E2E2E2E2E2E2E2E2E2E2E2E2E2E2E2E2E2E2E2E2E2E2E2E2E2E2E2E2E2E2E2E2E2E2E2E2E2E2E2E2E2E2E2
310
E2E2E2E2E2E2E2E2E2E2E2E2E2E2E2E2E2E2E2E2E2E2E2E2E2E2E2E2E2E2E2E2E2E2E2E2E2E2E2E2E2E2E2E2E2E2E2E2E2E2E2E2E2E2E2E2E2BEE2E2E2E2E2E2E2E2E2E2E2E2E2E2E2E2E2E2E2E2E2E2E2E2E2E2E2E2E2E2E2E2E2E2E2E2E2E2E2E2E2E2E2E2E2E2E2E2E2E2E2E2E2E2E2E2BEE2E2E2E2E2BEBEBEBEBEBEBE
310
BEBEBEE2E2BEE2E2E2E2E2E2E2E2E2E2E2E2E2E2E2E2E2E2E2E2E2E2E2E2E2E2E2E2E2E2E2E2E2E2E2E2E2E2E2E2E2E2E2E2E2E2E2E2E2E2E2E2E2E2E2E2E2E2E2E2E2E2E2E2E2E2E2E2E2E2E2E2E2E2E2E2E2E2E2E2E2E2E2E2E2E2E2E2E2E2E2E2E2E2E2E2E2E2E2E2E2E2E2E2E2E2E2E2E2E2E2E2E2E2E2E2E2E2E2E2E2
310
E2E2E2E2E2E2E2E2E2E2E2E2E2E2E2E2E2E2E2E2E2E2E2E2E2E2E2E2E2E2E2E2E2E2E2E2E2E2E2E2E2E2E2E2E2E2E2E2E2E2E2E2E2E2E2E2E2E2E2BEE2E2E2E2E2E2E2E2E2E2E2E2E2E2E2E2E2E2E2E2E2E2E2E2E2E2E2E2E2E2E2E2E2E2E2E2E2E2E2E2E2E2E2E2E2E2E2E2E2E2E2E2E2E2E2E2BEE2E2E2E2E2BEBEBEBEBE
310
BEBEBEBEBEE2E2BEE2E2E2E2E2E2E2E2E2E2E2E2E2E2E2E2E2E2E2E2E2E2E2E2E2E2E2E2E2E2E2E2E2E2E2E2E2E2E2E2E2E2E2E2E2E2E2E2E2E2E2E2E2E2E2E2E2E2E2E2E2E2E2E2E2E2E2E2E2E2E2E2E2E2E2E2E2E2E2E2E2E2E2E2E2E2E2E2E2E2E2E2E2E2E2E2E2E2E2E2E2E2E2E2E2E2E2E2E2E2E2E2E2E2E2E2E2E2E2
310
E2E2E2E2E2E2E2E2E2E2E2E2E2E2E2E2E2E2E2E2E2E2E2E2E2E2E2E2E2E2E2E2E2E2E2E2E2E2E2E2E2E2E2E2E2E2E2E2E2E2E2E2E2E2E2E2E2E2E2E2E2BEE2E2E2E2E2E2E2E2E2E2E2E2E2E2E2E2E2E2E2E2E2E2E2E2E2E2E2E2E2E2E2E2E2E2E2E2E2E2E2E2E2E2E2E2E2E2E2E2E2E2E2E2E2E2E2E2BEE2E2E2E2E2BEBEBE
310
BEBEBEBEBEBEBEE2E2BEE2E2E2E2E2E2E2E2E2E2E2E2E2E2E2E2E2E2E2E2E2E2E2E2E2E2E2E2E2E2E2E2E2E2E2E2E2E2E2E2E2E2E2E2E2E2E2E2E2E2E2E2E2E2E2E2E2E2E2E2E2E2E2E2E2E2E2E2E2E2E2E2E2E2E2E2E2E2E2E2E2E2E2E2E2E2E2E2E2E2E2E2E2E2E2E2E2E2E2E2E2E2E2E2E2E2E2E2E2E2E2E2E2E2E2E2E2
310
E2E2E2E2E2E2E2E2E2E2E2E2E2E2E2E2E2E2E2E2E2E2E2E2E2E2E2E2E2E2E2E2E2E2E2E2E2E2E2E2E2E2E2E2E2E2E2E2E2E2E2E2E2E2E2E2E2E2E2E2E2E2E2BEE2E2E2E2E2E2E2E2E2E2E2E2E2E2E2E2E2E2E2E2E2E2E2E2E2E2E2E2E2E2E2E2E2E2E2E2E2E2E2E2E2E2E2E2E2E2E2E2E2E2E2E2E2E2E2E2BEE2E2E2E2E2BE
310
BEBEBEBEBEBEBEBEBEE2E2BEE2E2E2E2E2E2E2E2E2E2E2E2E2E2E2E2E2E2E2E2E2E2E2E2E2E2E2E2E2E2E2E2E2E2E2E2E2E2E2E2E2E2E2E2E2E2E2E2E2E2E2E2E2E2E2E2E2E2E2E2E2E2E2E2E2E2E2E2E2E2E2E2E2E2E2E2E2E2E2E2E2E2E2E2E2E2E2E2E2E2E2E2E2E2E2E2E2E2E2E2E2E2E2E2E2E2E2E2E2E2E2E2E2E2E2
310
E2E2E2E2E2E2E2E2E2E2E2E2E2E2E2E2E2E2E2E2E2E2E2E2E2E2E2E2E2E2E2E2E2E2E2E2E2E2E2E2E2E2E2E2E2E2E2E2E2E2E2E2E2E2E2E2E2E2E2E2E2E2E2E2E2BEE2E2E2E2E2E2E2E2E2E2E2E2E2E2E2E2E2E2E2E2E2E2E2E2E2E2E2E2E2E2E2E2E2E2E2E2E2E2E2E2E2E2E2E2E2E2E2E2E2E2E2E2E2E2E2E2BEE2E2E2E2
310
E2BEBEBEBEBEBEBEBEBEBEE2E2BEE2E2E2E2E2E2E2E2E2E2E2E2E2E2E2E2E2E2E2E2E2E2E2E2E2E2E2E2E2E2E2E2E2E2E2E2E2E2E2E2E2E2E2E2E2E2E2E2E2E2E2E2E2E2E2E2E2E2E2E2E2E2E2E2E2E2E2E2E2E2E2E2E2E2E2E2E2E2E2E2E2E2E2E2E2E2E2E2E2E2E2E2E2E2E2E2E2E2E2E2E2E2E2E2E2E2E2E2E2E2E2E2E2
310
E2E2E2E2E2E2E2E2E2E2E2E2E2E2E2E2E2E2E2E2E2E2E2E2E2E2E2E2E2E2E2E2E2E2E2E2E2E2E2E2E2E2E2E2E2E2E2E2E2E2E2E2E2E2E2E2E2E2E2E2E2E2E2E2E2E2E2BEE2E2E2E2E2E2E2E2E2E2E2E2E2E2E2E2E2E2E2E2E2E2E2E2E2E2E2E2E2E2E2E2E2E2E2E2E2E2E2E2E2E2E2E2E2E2E2E2E2E2E2E2E2E2E2E2BEE2E2
310
E2E2E2BEBEBEBEBEBEBEBEBEBEE2E2BEE2E2E2E2E2E2E2E2E2E2E2E2E2E2E2E2E2E2E2E2E2E2E2E2E2E2E2E2E2E2E2E2E2E2E2E2E2E2E2E2E2E2E2E2E2E2E2E2E2E2E2E2E2E2E2E2E2E2E2E2E2E2E2E2E2E2E2E2E2E2E2E2E2E2E2E2E2E2E2E2E2E2E2E2E2E2E2E2E2E2E2E2E2E2E2E2E2E2E2E2E2E2E2E2E2E2E2E2E2E2E2
310
E2E2E2E2E2E2E2E2E2E2E2E2E2E2E2E2E2E2E2E2E2E2DCE2E2E2E2E2E2E2E2E2E2E2E2E2E2E2E2E2E2E2E2E2E2E2E2E2E2E2E2E2E2E2E2E2E2E2E2E2E2E2E2E2E2E2E2E2E2BEE2E2E2E2E2E2E2E2E2E2E2E2E2E2E2E2E2E2E2E2E2E2E2E2E2E2E2E2E2E2E2E2E2E2E2E2E2E2E2E2E2E2E2E2E2E2E2E2E2E2E2E2E2E2E2E2BE
310
E2E2E2E2E2BEBEBEBEBEBEBEBEBEBEE2E2BEE2E2E2E2E2E2E2E2E2E2E2E2E2E2E2E2E2E2E2E2E2E2E2E2E2E2E2E2E2E2E2E2E2E2E2E2E2E2E2E2E2E2E2E2E2E2E2E2E2E2E2E2E2E2E2E2E2E2E2E2E2E2E2E2E2E2E2E2E2E2E2E2E2E2E2E2E2E2E2E2E2E2E2E2E2E2E2E2E2E2E2E2E2E2E2E2E2E2E2E2E2E2E2E2E2E2E2E2E2
310
E2E2E2E2E2E2E2E2E2E2DCDCE2E2E2E2DCE2E2E2E2E2E2E2E2E2E2E2E2E2E2E2E2E2E2E2E2E2E2E2E2E2E2E2E2E2E2E2E2E2E2E2E2E2E2E2E2E2E2E2E2E2E2E2E2E2E2E2E2E2E2BEE2E2E2E2E2E2E2E2E2E2E2E2E2E2E2E2E2E2E2E2E2E2E2E2E2E2E2E2E2E2E2E2E2E2E2E2E2E2E2E2E2E2E2E2E2E2E2E2E2E2E2E2E2E2E2
310
E2BEE2E2E2E2E2BEBEBEBEBEBEBEBEBEBEE2E2BEE2E2E2E2E2E2E2E2E2E2E2E2E2E2E2E2E2E2E2E2E2E2E2E2E2E2E2E2E2E2E2E2E2E2E2E2E2E2E2E2E2E2E2E2E2E2E2E2E2E2E2E2E2E2E2E2E2E2E2E2E2E2E2E2E2E2E2E2E2E2E2E2E2E2E2E2E2E2E2E2E2E2E2E2E2E2E2DCDCE2E2E2E2E2E2E2E2E2E2E2E2E2DCE2E2E2E2
310
E2E2E2E2E2E2E2E2E2E2E2E2E2E2E2E2E2E2DCE2E2E2E2E2E2E2E2E2E2E2E2E2E2E2E2E2E2E2E2E2E2E2E2E2E2E2E2E2E2E2E2E2E2E2E2E2E2E2E2E2E2E2E2E2E2E2E2E2E2E2E2E2E2BEE2E2E2E2E2E2E2E2E2E2E2E2E2E2E2E2E2E2E2E2E2E2E2E2E2E2E2E2E2E2E2E2E2E2E2E2E2E2E2E2E2E2E2E2E2E2E2E2E2E2E2E2E2
310
E2E2E2BEE2E2E2E2E2BEBEBEBEBEBEBEBEBEBEE2E2BEE2E2E2E2E2E2E2E2E2E2E2E2E2E2E2E2E2E2E2E2E2E2E2E2E2E2E2E2E2E2E2E2E2E2E2E2E2E2E2E2E2E2E2E2E2E2E2E2E2E2E2E2E2E2E2E2E2E2E2E2E2E2E2E2E2E2E2E2E2E2E2DCE2E2E2E2E2E2E2E2E2E2E2E2E2E2E2E2E2DCE2E2E2E2E2E2E2E2E2E2E2E2DCE2E2
310
E2E2E2E2E2E2DCE2E2E2DCE2E2E2E2E2E2E2E2E2E2E2E2E2E2E2E2E2E2E2E2E2E2E2E2E2E2E2E2E2E2E2E2E2E2E2E2E2E2E2E2E2E2E2E2E2E2E2E2E2E2E2E2E2E2E2E2E2E2E2E2E2E2E2E2BEE2E2E2E2E2E2E2E2E2E2E2E2E2E2E2E2E2E2E2E2E2E2E2E2E2E2E2E2E2E2E2E2E2E2E2E2E2E2E2E2E2E2E2E2E2E2E2E2E2E2E2
310
E2E2E2E2E2BEE2E2E2E2E2BEBEBEBEBEBEBEBEBEBEE2E2BEE2E2E2E2E2E2E2E2E2E2E2E2E2E2E2E2E2E2E2E2E2E2E2E2E2E2E2E2E2E2E2E2E2E2E2E2E2E2E2E2E2E2E2E2E2E2E2E2E2E2E2E2E2E2E2E2E2E2E2E2E2E2E2E2E2E2E2E2E2E2E2E2DCE2E2E2E2E2E2E2E2E2E2DCDCE2E2E2E2E2E2E2E2E2E2E2E2DCE2E2E2E2E2
310
E2E2E2E2E2DCE2E2E2E2E2E2DCDCE2E2E2E2E2DCE2E2E2E2E2E2E2E2E2E2E2E2E2E2E2E2E2E2E2E2E2E2E2E2E2E2E2E2E2E2E2E2E2E2E2E2E2E2E2E2E2E2E2E2E2E2E2E2E2E2E2E2E2E2E2E2E2BEE2E2E2E2E2E2E2E2E2E2E2E2E2E2E2E2E2E2E2E2E2E2E2E2E2E2E2E2E2E2E2E2E2E2E2E2E2E2E2E2E2E2E2E2E2E2E2E2E2
310
E2E2E2E2E2E2E2BEE2E2E2E2E2BEBEBEBEBEBEBEBEBEBEE2E2BEE2E2E2E2E2E2E2E2E2E2E2E2E2E2E2E2E2E2E2E2E2E2E2E2E2E2E2E2E2E2E2E2E2E2E2E2E2E2E2E2E2E2E2E2E2E2E2E2E2E2E2E2E2E2E2E2E2E2E2E2E2E2DCE2E2E2E2E2E2E2E2E2DCDCE2E2E2E2E2DCE2E2E2DCDCE2E2E2E2E2E2E2E2E2E2E2E2DCE2E2E2
310
E2E2E2E2E2E2E2E2E2DCE2E2E2E2E2E2E2E2E2E2E2E2E2E2E2E2E2E2E2E2E2E2E2E2E2E2E2E2E2E2E2E2E2E2E2E2E2E2E2E2E2E2E2E2E2E2E2E2E2E2E2E2E2E2E2E2E2E2E2E2E2E2E2E2E2E2E2E2E2BEE2E2E2E2E2E2E2E2E2E2E2E2E2E2E2E2E2E2E2E2E2E2E2E2E2E2E2E2E2E2E2E2E2E2E2E2E2E2E2E2E2E2E2E2E2E2E2
310
E2E2E2E2E2E2E2E2E2BEE2E2E2E2E2BEBEBEBEBEBEBEBEBEBEE2E2BEE2E2E2E2E2E2E2E2E2E2E2E2E2E2E2E2E2E2E2E2E2E2E2E2E2E2E2E2E2E2E2E2E2E2E2E2E2E2E2E2E2E2E2E2E2E2E2E2E2E2E2E2E2E2E2E2E2E2E2E2E2E2E2E2E2E2E2E2E2E2E2E2E2E2E2E2E2E2E2E2E2E2E2E2E2E2E2E2E2E2E2E2E2E2E2E2E2E2E2
310
E2E2E2E2E2E2E2E2E2E2E2E2E2E2E2E2E2E2E2E2E2E2E2E2E2E2E2E2E2E2E2E2E2E2E2E2E2E2E2E2DCE2E2E2E2E2E2E2E2E2E2E2E2E2E2E2E2E2E2E2E2E2E2E2E2E2E2E2E2E2E2E2E2E2E2E2E2E2E2E2E2BEE2E2E2E2E2E2E2E2E2E2E2E2E2E2E2E2E2E2E2E2E2E2E2E2E2E2E2E2E2E2E2E2E2E2E2E2E2E2E2E2E2E2E2E2E2
310
E2E2E2E2E2E2E2E2E2E2E2BEE2E2E2E2E2BEBEBEBEBEBEBEBEBEBEE2E2BEE2E2E2E2E2E2E2E2E2E2E2E2E2E2E2E2E2E2E2E2E2E2E2E2E2E2E2E2E2E2E2E2E2E2E2E2E2E2E2E2E2E2E2E2E2E2E2E2E2E2E2E2E2E2E2E2E2E2E2E2E2E2E2E2E2E2E2E2E2E2E2E2E2E2E2E2E2E2E2E2E2E2E2E2E2E2E2E2E2E2E2E2E2E2E2E2E2
310
E2E2E2E2E2E2E2E2E2E2E2E2E2E2E2E2E2E2E2E2E2E2E2E2E2E2E2E2E2E2E2E2E2E2E2E2E2E2E2E2E2E2E2E2E2E2E2E2E2E2E2E2E2E2E2E2E2E2E2E2E2E2E2E2E2E2E2E2E2E2E2E2E2E2E2E2E2E2E2E2E2E2E2BEE2E2E2E2E2E2E2E2E2E2E2E2E2E2E2E2E2E2E2E2E2E2E2E2E2E2E2E2E2E2E2E2E2E2E2E2E2E2E2E2E2E2E2
310
E2E2E2E2E2E2E2E2E2E2E2E2E2BEE2E2E2E2E2BEBEBEBEBEBEBEBEBEBEE2E2BEE2E2E2E2E2E2E2E2E2E2E2E2E2E2E2E2E2E2E2E2E2E2E2E2E2E2E2E2E2E2E2E2E2E2E2E2E2E2E2E2E2E2E2E2E2E2E2E2E2E2E2E2E2E2E2E2E2E2E2E2E2E2E2E2E2E2E2E2E2E2E2E2E2E2E2E2E2E2E2E2E2E2E2E2E2E2E2E2E2E2E2DCDCDCDC
310
DCDCDCDCDCDCDCDCDCDCDCDCDCDCDCDCDCE2E2E2E2E2E2E2E2E2E2E2E2E2E2E2E2E2E2E2E2E2E2E2E2E2DCDCE2E2E2E2E2E2E2E2E2E2E2E2E2E2E2E2E2E2E2E2E2E2E2E2E2E2E2E2E2E2E2E2E2E2E2E2E2E2E2E2E2BEE2E2E2E2E2E2E2E2E2E2E2E2E2E2E2E2E2E2E2E2E2E2E2E2E2E2E2E2E2E2E2E2E2E2E2E2E2E2E2E2E2
310
E2E2E2E2E2E2E2E2E2E2E2E2E2E2E2BEE2E2E2E2E2BEBEBEBEBEBEBEBEBEBEE2E2BEE2E2E2E2E2E2E2E2E2E2E2E2E2E2E2E2E2E2E2E2E2E2E2E2E2E2E2E2E2E2E2E2E2E2E2E2E2E2E2E2E2E2E2E2E2E2E2E2E2E2E2E2E2E2E2E2E2E2E2E2E2E2E2E2E2E2E2E2E22D2D2D2D2D2D2D2D2D2D2D2D2D2D2D2D2D2D2D2D2D2D2DE2
310
E2E2E2E2E2E2E2E2E2E2E2E2E2E2E2E2E2E2DC2D2D2D2D2D2D2D2D2D2D2D2D2D2D2D2D2D2D2D2D2D2D2D2DE2E2E2E2E2E2E2E2E2E2E2E2E2E2E2E2E2E2E2E2E2E2E2E2E2E2E2E2E2E2E2E2E2E2E2E2E2E2E2E2E2E2E2E2BEE2E2E2E2E2E2E2E2E2E2E2E2E2E2E2E2E2E2E2E2E2E2E2E2E2E2E2E2E2E2E2E2E2E2E2E2E2E2E2
310
E2E2E2E2E2E2E2E2E2E2E2E2E2E2E2E2E2BEE2E2E2E2E2BEBEBEBEBEBEBEBEBEBEE2E2BEE2E2E2E2E2E2E2E2E2E2E2E2E2E2E2E2E2E2E2E2E2E2E2E2E2E2E2E2E2E2E2E2E2E2E2E2E2E2E2E2E2E2E2E2E2E2E2E2E2E2E2E2E2E2E2E2E2E2E2E2E2E2E2E2DCE2E2DCDC2DE2E22DE2E2E2E2E2E2E2E2E2E2E2E2E2E2E2E2E2E2
310
DCE2E2E2E2E2E2E2E2E2E2E2E2E2E2E2E2E2E2E2DCE2E2E2E2E2E2E2E2E2E2E2E2E2E2E2E2E2E2E2E2E2E2E22DE2E2E2E2E2E2E2E2E2E2E2E2E2E2E2E2E2E2E2E2E2E2E2E2E2E2E2E2E2E2E2E2E2E2E2E2E2E2E2E2E2E2E2E2BEE2E2E2E2E2E2E2E2E2E2E2E2E2E2E2E2E2E2E2E2E2E2E2E2E2E2E2E2E2E2E2E2E2E2E2E2E2
310
E2E2E2E2E2E2E2E2E2E2E2E2E2E2E2E2E2E2E2BEE2E2E2E2E2BEBEBEBEBEBEBEBEBEBEE2E2BEE2E2E2E2E2E2E2E2E2E2E2E2E2E2E2E2E2E2E2E2E2E2E2E2E2E2E2E2E2E2E2E2E2E2E2E2E2E2E2E2E2E2E2E2E2E2E2E2E2E2E2E2E2E2E2E2E2E2E2E2E2E2E2E2E2DCE2DC2D2DE2E22DE2E2E2E2E2E2E2E2E2E2E2E2E2E2E2E2
310
E2E2DCE2E2E2E2E2E2E2E2E2E2E2E2E2E2E2E2E2E2E2DCE2E2E2E2E2E2E2E2E2E2E2E2E2E2E2E2E2E2E2E2E2E2E22DE2E2E2E2E2E2E2E2E2E2E2E2E2E2E2E2E2E2E2E2E2E2E2E2E2E2E2E2E2E2E2E2E2E2E2E2E2E2E2E2E2E2E2E2BEE2E2E2E2E2E2E2E2E2E2E2E2E2E2E2E2E2E2E2E2E2E2E2E2E2E2E2E2E2E2E2E2E2E2E2
310
E2E2E2E2E2E2E2E2E2E2E2E2E2E2E2E2E2E2E2E2E2BEE2E2E2E2E2BEBEBEBEBEBEBEBEBEBEE2E2BEE2E2E2E2E2E2E2E2E2E2E2E2E2E2E2E2E2E2E2E2E2E2E2E2E2E2E2E2E2E2E2E2E2E2E2E2E2E2E2E2E2E2E2E2E2E2E2E2E2E2E2E2E2E2E2E2E2E2E2E2E2E2E2E2E2E2E2E2E22D2D2DE2E2E2E2E2E2E2E2E2E2E2E2E2E2E2
310
E2E2E2E2DCE2E2E2E2E2E2E2E2E2E2E2E2E2E2E2E2E2E2E2DCE2E2E2E2E2E2E2E2E2E2E2E2E2E2E2E2E2E2E2E2E22D2D2DE2E2E2E2E2E2E2E2E2E2E2E2E2E2E2E2E2E2E2E2E2E2E2E2E2E2E2E2E2E2E2E2E2E2E2E2E2E2E2E2E2E2E2E2BEE2E2E2E2E2E2E2E2E2E2E2E2E2E2E2E2E2E2E2E2E2E2E2E2E2E2E2E2E2E2E2E2E2
310
E2E2E2E2E2E2E2E2E2E2E2E2E2E2E2E2E2E2E2E2E2E2E2BEE2E2E2E2E2BEBEBEBEBEBEBEBEBEBEE2E2BEE2E2E2E2E2E2E2E2E2E2E2E2E2E2E2E2E2E2E2E2E2E2E2E2E2E2E2E2E2E2E2E2E2E2E2E2E2E2E2E2E2E2E2E2E2E2E2E2E2E2E2E2E2E2E2E2E2E2E2E2E2E2E2E2E2DCDCE2E22DE2E2E2E2E2E2E2E2E2E2E2E2E2E2E2
310
E2E2E2E2E2E2DCE2E2E2E2E2E2E2E2E2E2E2E2E2E2E2E2E2E2E2DCE2E2E2E2E2E2E2E2E2E2E2E2E2E2E2E2E2E2E2E22D2DE22DE2E2E2E2E2E2E2E2E2E2E2E2E2E2E2E2E2E2E2E2E2E2E2E2E2E2E2E2E2E2E2E2E2E2E2E2E2E2E2E2E2E2E2E2BEE2E2E2E2E2E2E2E2E2E2E2E2E2E2E2E2E2E2E2E2E2E2E2E2E2E2E2E2E2E2E2
310
E2E2E2E2E2E2E2E2E2E2E2E2E2E2E2E2E2E2E2E2E2E2E2E2E2BEE2E2E2E2E2BEBEBEBEBEBEBEBEBEBEE2E2BEE2E2E2E2E2E2E2E2E2E2E2E2E2E2E2E2E2E2E2E2E2E2E2E2E2E2E2E2E2E2E2E2E2E2E2E2E2E2E2E2E2E2E2E2E2E2E2E2E2E2E2E2E2E2E2E2E2E2E2E2E2E2E2E2E2E2E2E22D2DE2E2E2E2E2E2E2E2E2E2E2E2E2
310
E2E2E2E2E2E2E2E2DCE2E2E2E2E2E2E2BEBEBEBEBEE2E2E2E2E2E2E2DCE2E2E2E2E2E2E2E2E2E2E2E2E2E2E2E2E2E2E2E22DE2E22DE2E2E2DCE2E2E2E2E2E2E2E2E2E2E2E2E2E2E2E2E2E2E2E2E2E2E2E2E2E2E2E2E2E2E2E2E2E2E2E2E2E2E2E2BEE2E2E2E2E2E2E2E2E2E2E2E2E2E2E2E2E2E2E2E2E2E2E2E2E2E2E2E2E2
310
E2E2E2E2E2E2E2E2E2E2E2E2E2E2E2E2E2E2E2E2E2E2E2E2E2E2E2BEE2E2E2E2E2BEBEBEBEBEBEBEBEBEBEE2E2BEE2E2E2E2E2E2E2E2E2E2E2E2E2E2E2E2E2E2E2E2E2E2E2E2E2E2E2E2E2E2E2E2E2E2E2E2E2E2E2E2E2E2E2E2E2E2E2E2E2E2E2E2E2E2E2E2E2E2E2E2E2E2E2E2E2E2E2E2E22D2D2D2D2D2D2D2D2D2D2D2D
310
2DDC2D2D2D2D2D2D2D2D2DE2E2E2E2E2E2BEBEE2E2E2BEBEE2E2E2E2E2E2DC2D2D2D2D2D2D2D2D2D2DDCDCDCDCDCDCDCDCDCDCDCDC2D2DE2E2E2E2E2E2E2E2E2E2E2E2E2E2E2E2E2E2E2E2E2E2E2E2E2E2E2E2E2E2E2E2E2E2E2E2E2E2E2E2E2E2E2E2BEE2E2E2E2E2E2E2E2E2E2E2E2E2E2E2E2E2E2E2E2E2E2E2E2E2E2E2
310
E2E2E2E2E2E2E2E2E2E2E2E2E2E2E2E2E2E2E2E2E2E2E2E2E2E2E2E2E2BEE2E2E2E2E2BEBEBEBEBEBEBEBEBEBEE2E2BEE2E2E2E2E2E2E2E2E2E2E2E2E2E2E2E2E2E2E2E2E2E2E2E2E2E2E2E2E2E2E2E2E2E2E2E2E2E2E2E2E2E2E2E2E2E2E2E2E2E2E2E2E2E2E2E2E2E2E2E2E2E2E2E2E2E2DCDCE2E2E2E2E2E2E2E2E2E2E2
310
E2E2DCE2E2E2E2E2E2E2E2E2DCDCDCDCDCDCDCDCE2E2E2E2E2DCDCDCDCDCDCDCDCE2E2E2E2E2E2E2E2E2E2E2E2E2E2E2E2E2E2DCE2E2E2E2E2E2E2E2E2E2E2E2E2E2E2E2E2E2E2E2E2E2E2E2E2E2E2E2E2E2E2E2E2E2E2E2E2E2E2E2E2E2E2E2E2E2E2E2E2BEE2E2E2E2E2E2E2E2E2E2E2E2E2E2E2E2E2E2E2E2E2E2E2E2E2
310
E2E2E2E2E2E2E2E2E2E2E2E2E2E2E2E2E2E2E2E2E2E2E2E2E2E2E2E2E2E2E2BEE2E2E2E2E2BEBEBEBEBEBEBEBEBEBEE2E2BEE2E2E2E2E2E2E2E2E2E2E2E2E2E2E2E2E2E2E2E2E2E2E2E2E2E2E2E2E2E2E2E2E2E2E2E2E2E2E2E2E2E2E2E2E2E2E2E2E2E2E2E2E2E2E2E2E2E2E2E2E2E2E2E2E2E2E2E2E2E2E2E2E2E2E2E2E2
310
E2E2E2DCE2E2E2E2E2E2E2E2E2E2E2E2E2E2DCDCDCDCE2E2E2E2E2DCE2E2E2E2E2E2E2E2E2E2E2E2E2E2E2E2E2E2E2E2E2E2E2E2DCDCE2E2E2E2E2E2E2E2E2E2E2E2E2E2E2E2E2E2E2E2E2E2E2E2E2E2E2E2E2E2E2E2E2E2E2E2E2E2E2E2E2E2E2E2E2E2E2E2E2BEE2E2E2E2E2E2E2E2E2E2E2E2E2E2E2E2E2E2E2E2E2E2E2
310
E2E2E2E2E2E2E2E2E2E2E2E2E2E2E2E2E2E2E2E2E2E2E2E2E2E2E2E2E2E2E2E2E2BEE2E2E2E2E2BEBEBEBEBEBEBEBEBEBEE2E2BEE2E2E2E2E2E2E2E2E2E2E2E2E2E2E2E2E2E2E2E2E2E2E2E2E2E2E2E2E2E2E2E2E2E2E2E2E2E2E2E2E2E2E2E2E2E2E2E2E2E2E2E2E2E2E2E2E2E2E2E2E2E2E2E2E2E2E2E2E2E2E2E2E2E2E2
310
E2E2E2E2DCE2E2E2E2E2E2E2E2E2E2E2E2E2E2DCDCDCE2DCE2E2E2E2E2DCE2E2E2E2E2E2E2E2DCE2E2E2E2E2E2E2E2E2E2E2E2E2E2E2DCDCE2E2E2E2E2E2E2E2E2E2E2E2E2E2E2E2E2E2E2E2E2E2E2E2E2E2E2E2E2E2E2E2E2E2E2E2E2E2E2E2E2E2E2E2E2E2E2E2E2BEE2E2E2E2E2E2E2E2E2E2E2E2E2E2E2E2E2E2E2E2E2
310
E2E2E2E2E2E2E2E2E2E2E2E2E2E2E2E2E2E2E2E2E2E2E2E2E2E2E2E2E2E2E2E2E2E2E2BEE2E2E2E2E2BEBEBEBEBEBEBEBEBEBEE2E2BEE2E2E2E2E2E2E2E2E2E2E2E2E2E2E2E2E2E2E2E2E2E2E2E2E2E2E2E2E2E2E2E2E2E2E2E2E2E2E2E2E2E2E2E2E2E2E2E2E2E2E2E2E2E2E2E2E2E2E2E2E2E2E2E2E2E2E2E2E2E2E2E2E2
310
E2E2E2E2E2DCE2E2E2E2E2E2E2E2E2E2E2E2E2E2DCE2E2E2E2DCE2E2E2E2E2DCE2E2E2E2E2E2E2E2DCDCE2E2E2E2E2E2E2E2E2E2E2E2E2E2E2DCE2E2E2E2E2E2E2E2E2E2E2E2E2E2E2E2E2E2E2E2E2E2E2E2E2E2E2E2E2E2E2E2E2E2E2E2E2E2E2E2E2E2E2E2E2E2E2E2E2BEE2E2E2E2E2E2E2E2E2E2E2E2E2E2E2E2E2E2E2
310
E2E2E2E2E2E2E2E2E2E2E2E2E2E2E2E2E2E2E2E2E2E2E2E2E2E2E2E2E2E2E2E2E2E2E2E2E2BEE2E2E2E2E2BEBEBEBEBEBEBEBEBEBEE2E2BEE2E2E2E2E2E2E2E2E2E2E2E2E2E2E2E2E2E2E2E2E2E2E2E2E2E2E2E2E2E2E2E2E2E2E2E2E2E2E2E2E2E2E2E2E2E2E2E2E2E2E2E2E2E2E2E2E2E2E2E2E2E2E2E2E2E2E2E2E2E2E2
310
E2E2E2E2E2E2DCE2E2E2E2E2E2E2E2E2E2E2E2E2E2DCE2E2E2E2E2BEDCDCDCDCBEDCE2E2E2E2E2E2E2E2E2E2E2E2E2E2E2E2E2E2E2E2E2E2E2E2E2DCE2E2E2E2E2E2E2DCE2E2E2E2E2E2E2E2E2E2E2E2E2E2E2E2E2E2E2E2E2E2E2E2E2E2E2E2E2E2E2E2E2E2E2E2E2E2E2E2E2BEE2E2E2E2E2E2E2E2E2E2E2E2E2E2E2E2E2
310
E2E2E2E2E2E2E2E2E2E2E2E2E2E2E2E2E2E2E2E2E2E2E2E2E2E2E2E2E2E2E2E2E2E2E2E2E2E2E2BEE2E2E2E2E2BEBEBEBEBEBEBEBEBEBEE2E2BEE2E2E2E2E2E2E2E2E2E2E2E2E2E2E2E2E2E2E2E2E2E2E2E2E2E2E2E2E2E2E2E2E2E2E2E2E2E2E2E2E2E2E2E2E2E2E2E2E2E2E2E2E2E2E2E2E2E2E2E2E2E2E2E2E2E2E2E2E2
310
E2E2E2E2E2E2E2DCE2E2E2E2E2E2E2E2E2E2E2E2E2DCDCE2E2E2E2E2E2BEBEBEBEBEBEBEE2E2E2E2DCE2E2E2E2E2E2E2E2E2E2E2E2E2E2E2E2E2E2E2E2DCE2E2E2E2E2E2E2E2E2E2E2E2E2E2E2E2E2E2E2E2E2E2E2E2E2E2E2E2E2E2E2E2E2E2E2E2E2E2E2E2E2E2E2E2E2E2E2E2E2BEE2E2E2E2E2E2E2E2E2E2E2E2E2E2E2
310
E2E2E2E2E2E2E2E2E2E2E2E2E2E2E2E2E2E2E2E2E2E2E2E2E2E2E2E2E2E2E2E2E2E2E2E2E2E2E2E2E2BEE2E2E2E2E2BEBEBEBEBEBEBEBEBEBEE2E2BEE2E2E2E2E2E2E2E2E2E2E2E2E2E2E2E2E2E2E2E2E2E2E2E2E2E2E2E2E2E2E2E2E2E2E2E2E2E2E2E2E2E2E2E2E2E2E2E2E2E2E2E2E2E2E2E2E2E2E2E2E2E2E2E2E2E2E2
310
E2E2E2E2E2E2E2E2DCE2E2E2E2E2E2E2E2E2E2E2E2E2DCE2E2E2E2E2E2E2E2BEBEDCDCBEDCBEE2E2E2E2E2E2E2E2E2E2E2E2E2E2E2E2E2E2E2E2E2E2E2E2E2DCE2E2E2E2E2E2E2E2E2E2E2E2E2E2E2E2E2E2E2E2E2E2E2E2E2E2E2E2E2E2E2E2E2E2E2E2E2E2E2E2E2E2E2E2E2E2E2E2E2BEE2E2E2E2E2E2E2E2E2E2E2E2E2
310
E2E2E2E2E2E2E2E2E2E2E2E2E2E2E2E2E2E2E2E2E2E2E2E2E2E2E2E2E2E2E2E2E2E2E2E2E2E2E2E2E2E2E2BEE2E2E2E2E2BEBEBEBEBEBEBEBEBEBEE2E2BEE2E2E2E2E2E2E2E2E2E2E2E2E2E2E2E2E2E2E2E2E2E2E2E2E2E2E2E2E2E2E2E2E2E2E2E2E2E2E2E2E2E2E2E2E2E2E2E2E2E2E2E2E2E2E2E2E2E2E2E2E2E2E2E2E2
310
E2E2E2E2E2E2E2E2E2DCE2E2E2E2E2E2E2E2E2E2E2E2DCDCE2E2E2E2E2E2E2E2E2DCBEDCDCBEBEDCE2E2E2E2E2E2E2E2E2E2E2E2E2E2E2E2E2E2E2E2E2E2E2E2E2DCE2E2E2E2E2E2E2E2E2E2E2E2E2E2E2E2E2E2E2E2E2E2E2E2E2E2E2E2E2E2E2E2E2E2E2E2E2E2E2E2E2E2E2E2E2E2E2E2E2BEE2E2E2E2E2E2E2E2E2E2E2
310
E2E2E2E2E2E2E2E2E2E2E2E2E2E2E2E2E2E2E2E2E2E2E2E2E2E2E2E2E2E2E2E2E2E2E2E2E2E2E2E2E2E2E2E2E2BEE2E2E2E2E2BEBEBEBEBEBEBEBEBEBEE2E2BEE2E2E2E2E2E2E2E2E2E2E2E2E2E2E2E2E2E2E2E2E2E2E2E2E2E2E2E2E2E2E2E2E2E2E2E2E2E2E2E2E2E2E2E2E2E2E2E2E2E2E2E2E2E2E2E2E2E2E2E2E2E2E2
310
E2E2E2E2E2E2E2E2E2E2DCE2E2E2E2E2E2E2E2E2E2E2E2DCE2E2E2E2E2E2E2E2E2E2E2DCBEDCDCBEBEDCE2E2E2E2E2E2E2E2DCE2E2E2E2E2E2E2E2E2E2E2E2E2E2E2E2DCE2E2E2E2E2E2E2E2E2E2E2E2E2E2E2E2E2E2E2E2E2E2E2E2E2E2E2E2E2E2E2E2E2E2E2E2E2E2E2E2E2E2E2E2E2E2E2E2E2BEE2E2E2E2E2E2E2E2E2
310
E2E2E2E2E2E2E2E2E2E2E2E2E2E2E2E2E2E2E2E2E2E2E2E2E2E2E2E2E2E2E2E2E2E2E2E2E2E2E2E2E2E2E2E2E2E2E2BEE2E2E2E2E2BEBEBEBEBEBEBEBEBEBEE2E2BEE2E2E2E2E2E2E2E2E2E2E2E2E2E2E2E2E2E2E2E2E2E2E2E2E2E2E2E2E2E2E2E2E2E2E2E2E2E2E2E2E2E2E2E2E2E2E2E2E2E2E2E2E2E2E2E2E2E2E2E2E2
310
E2E2E2E2E2E2E2E2E2E2E2DCE2E2E2E2E2E2E2E2E2E2E2DCDCE2E2E2E2E2E2E2E2E2E2E2DCDCBEDCDCBEBEDCE2E2E2DCE2E2E2E2DCE2E2E2E2E2E2E2E2E2E2E2E2E2DCE2E2DCE2E2E2E2E2E2E2E2E2E2E2E2E2E2E2E2E2E2E2E2E2E2E2E2E2E2E2E2E2E2E2E2E2E2E2E2E2E2E2E2E2E2E2E2E2E2E2E2E2BEE2E2E2E2E2E2E2
310
E2E2E2E2E2E2E2E2E2E2E2E2E2E2E2E2E2E2E2E2E2E2E2E2E2E2E2E2E2E2E2E2E2E2E2E2E2E2E2E2E2E2E2E2E2E2E2E2E2BEE2E2E2E2E2BEBEBEBEBEBEBEBEBEBEE2E2BEE2E2E2E2E2E2E2E2E2E2E2E2E2E2E2E2E2E2E2E2E2E2E2E2E2E2E2E2E2E2E2E2E2E2E2E2E2E2E2E2E2E2E2E2E2E2E2E2E2E2E2E2E2E2E2E2E2E2E2
310
E2E2E2E2E2E2E2E2E2E2E2E2DCE2E2E2E2E2E2E2E2E2E2E2DCE2E2E2E2E2E2E2E2E2E2E2DCDCDCDCDCDCDCDCDCDCE2E2E2E2E2E2E2E2E2E2E2E2E2E2E2E2E2E2E2E2E2E2E2E2E2DCE2E2E2E2E2DCDCE2E2E2E2E2E2E2E2E2E2E2E2E2E2E2E2E2E2E2E2E2E2E2E2E2E2E2E2E2E2E2E2E2E2E2E2E2E2E2E2E2E2BEE2E2E2E2E2
310
E2E2E2E2E2E2E2E2E2E2E2E2E2E2E2E2E2E2E2E2E2E2E2E2E2E2E2E2E2E2E2E2E2E2E2E2E2E2E2E2E2E2E2E2E2E2E2E2E2E2E2BEE2E2E2E2E2BEBEBEBEBEBEBEBEBEBEE2E2BEE2E2E2E2E2E2E2E2E2E2E2E2E2E2E2E2E2E2E2E2E2E2E2E2E2E2E2E2E2E2E2E2E2E2E2E2E2E2E2E2E2E2E2E2E2DCE2DCDCDCE2E2DCE2DCE2DC
310
DCDCDCDCE2E2E2E2E2E2E2E2E2DCE2E2E2E2E2E2E2E2E2E2E2DCE2E2E2E2E2E2E2E2E2E2E2E2E2DCE2DCE2E2E2E2E2DCE2E2E2E2E2E2E2E2E2E2E2E2E2E2E2E2E2E2E2E2E2E2E2E2E2DCE2E2E2E2E2E2E2E2E2E2E2E2E2E2E2E2E2E2E2E2E2E2E2E2E2E2E2E2E2E2E2E2E2E2E2E2E2E2E2E2E2E2E2E2E2E2E2E2E2BEE2E2E2
310
E2E2E2E2E2E2E2E2E2E2E2E2E2E2E2E2E2E2E2E2E2E2E2E2E2E2E2E2E2E2E2E2E2E2E2E2E2E2E2E2E2E2E2E2E2E2E2E2E2E2E2E2E2BEE2E2E2E2E2BEBEBEBEBEBEBEBEBEBEE2E2BEE2E2E2E2E2E2E2E2E2E2E2E2E2E2E2E2E2E2E2E2E2E2E2E2E2E2E2E2E2E2E2E2E2E2E2E2E2E2E2E2E2E2E2E2E2DCDCDCDCDCE2E2DCDCDC
310
DCDCDCDCDCDCE2DCDCDCDCDCDCDCDCE2E2E2E2E2E2E2E2E2E2DCDCE2E2E2E2E2E2E2E2E2E2E2E2DCDCE2DCBEBEBEBEBEBEBEDCE2E2E2E2E2E2E2E2E2E2E2E2E2E2E2E2E2E2E2E2E2E2E2E2DCE2E2E2E2E2E2E2E2DCDCE2E2E2E2E2E2E2E2E2E2E2E2E2E2E2E2E2E2E2E2E2E2E2E2E2E2E2E2E2E2E2E2E2E2E2E2E2E2E2BEE2
310
E2E2E2E2E2E2E2E2E2E2E2E2E2E2E2E2E2E2E2E2E2E2E2E2E2E2E2E2E2E2E2E2E2E2E2E2E2E2E2E2E2E2E2E2E2E2E2E2E2E2E2E2E2E2E2BEE2E2E2E2E2BEBEBEBEBEBEBEBEBEBEE2E2BEE2E2E2E2E2E2E2E2E2E2E2E2E2E2E2E2E2E2E2E2E2E2E2E2E2E2E2E2E2E2E2E2E2E2E2E2E2E2E2E2E2E2E2E2E2DCDCE2DCDCE2E2DC
310
DCDCDCDCDCDCDCDCE2E2E2E2E2E2E2E2E2E2E2E2E2E2E2E2E2E2DCE2E2E2E2E2E2E2E2E2E2E2E2E2DCE2E2E2E2DCE2E2E2E2E2E2DCE2E2E2E2E2E2E2E2E2E2E2E2E2E2E2E2E2E2E2E2E2E2E2E2DCE2E2E2E2E2E2E2E2DCDCE2E2E2E2E2E2E2E2E2E2E2E2E2E2E2E2E2E2E2E2E2E2E2E2E2E2E2E2E2E2E2E2E2E2E2E2E2E2E2
310
BEE2E2E2E2E2E2E2E2E2E2E2E2E2E2E2E2E2E2E2E2E2E2E2E2E2E2E2E2E2E2E2E2E2E2E2E2E2E2E2E2E2E2E2E2E2E2E2E2E2E2E2E2E2E2E2E2BEE2E2E2E2E2BEBEBEBEBEBEBEBEBEBEE2E2BEE2E2E2E2E2E2E2E2E2E2E2E2E2E2E2E2E2E2E2E2E2E2E2E2E2E2E2E2E2E2E2E2E2E2E2E2E2E2E2E2E2E2E2E2E2E2E2E2E2E2E2
310
E2E2E2E2E2E2E2E2E2E2E2E2E2E2E2E2E2E2E2E2E2E2E2E2E2E2DCDCE2E2E2E2E2E2E2E2E2E2E2E2E2DCE2E2E2E2E2DCBEBEBEBEBEDCE2E2E2E2DCE2E2E2E2E2E2E2E2E2E2E2E2E2DCDCE2E2E2E2E2DCE2E2E2E2E2E2E2E2E2E2E2E2E2E2E2E2E2E2E2E2E2E2E2E2E2E2E2E2E2E2E2E2E2E2E2E2E2E2E2E2E2E2E2E2E2E2E2
310
E2E2BEE2E2E2E2E2E2E2E2E2E2E2E2E2E2E2E2E2E2E2E2E2E2E2E2E2E2E2E2E2E2E2E2E2E2E2E2E2E2E2E2E2E2E2E2E2E2E2E2E2E2E2E2E2E2E2E2BEE2E2E2E2E2BEBEBEBEBEBEBEBEBEBEE2E2BEE2E2E2E2E2E2E2E2E2E2E2E2E2E2E2E2E2E2E2E2E2E2E2E2E2E2E2E2E2E2E2E2E2E2E2E2E2E2E2E2E2E2E2E2E2E2E2E2E2
310
E2E2E2E2E2E2E2E2E2E2E2E2E2E2E2E2E2E2E2E2E2E2E2E2E2E2E2DCE2E2E2E2E2E2E2E2E2E2E2E2E2DCDCE2E2E2E2E2E2DCE2E2E2E2E2DCE2E2E2E2DCE2E2E2DCDCE2E2E2E2E2E2E2E2E2E2E2E2E2E2E2DCE2E2E2E2E2E2E2E2E2E2E2E2E2E2E2E2E2E2E2E2E2E2E2E2E2E2E2E2E2E2E2E2E2E2E2E2E2E2E2E2E2E2E2E2E2
310
E2E2E2E2BEE2E2E2E2E2E2E2E2E2E2E2E2E2E2E2E2E2E2E2E2E2E2E2E2E2E2E2E2E2E2E2E2E2E2E2E2E2E2E2E2E2E2E2E2E2E2E2E2E2E2E2E2E2E2E2E2BEE2E2E2E2E2BEBEBEBEBEBEBEBEBEBEE2E2BEE2E2E2E2E2E2E2E2E2E2E2E2E2E2E2E2E2E2E2E2E2E2E2E2E2E2E2E2E2E2E2E2E2E2E2E2E2E2E2E2E2E2E2E2E2E2E2
310
E2E2E2E2E2E2E2E2E2E2E2E2E2E2E2E2E2E2E2E2E2E2E2E2E2E2E2DCDCE2E2E2E2E2E2E2E2E2E2E2E2E2DCE2E2E2E2E2E2E2E2DCE2E2E2E2E2DCE2E2E2E2E2E2E2E2E2E2E2E2E2E2E2E2E2E2E2E2E2E2E2E2E2DCE2E2E2E2E2E2E2E2E2E2E2E2E2E2E2E2E2E2E2E2E2E2E2E2E2E2E2E2E2E2E2E2E2E2E2E2E2E2E2E2E2E2E2
310
E2E2E2E2E2E2BEE2E2E2E2E2E2E2E2E2E2E2E2E2E2E2E2E2E2E2E2E2E2E2E2E2E2E2E2E2E2E2E2E2E2E2E2E2E2E2E2E2E2E2E2E2E2E2E2E2E2E2E2E2E2E2E2BEE2E2E2E2E2BEBEBEBEBEBEBEBEBEBEE2E2BEE2E2E2E2E2E2E2E2E2E2E2E2E2E2E2E2E2E2E2E2E2E2E2E2E2E2E2E2E2E2E2E2E2E2E2E2E2E2E2E2E2E2E2E2E2
310
E2E2E2E2E2E2E2E2E2E2E2E2E2E2E2E2E2E2E2E2E2E2E2E2E2E2E2E2DCE2E2E2E2E2E2E2E2E2E2E2E2E2DCDCE2E2E2E2E2E2E2E2E2DCE2E2E2E2E2DCE2E2E2DCDCE2E2E2E2E2E2E2E2E2E2E2E2E2E2E2E2E2E2E2E2DCE2E2E2E2E2E2E2E2E2E2E2E2E2E2E2E2E2E2E2E2E2E2E2E2E2E2E2E2E2E2E2E2E2E2E2E2E2E2E2E2E2
310
E2E2E2E2E2E2E2E2BEE2E2E2E2E2E2E2E2E2E2E2E2E2E2E2E2E2E2E2E2E2E2E2E2E2E2E2E2E2E2E2E2E2E2E2E2E2E2E2E2E2E2E2E2E2E2E2E2E2E2E2E2E2E2E2E2BEE2E2E2E2E2BEBEBEBEBEBEBEBEBEBEE2E2BEE2E2E2E2E2E2E2E2E2E2E2E2E2E2E2E2E2E2E2E2E2E2E2E2E2E2E2E2E2E2E2E2E2E2E2E2E2E2E2E2E2E2E2
310
E2E2E2E2E2E2E2E2E2E2E2E2E2E2E2E2E2E2E2E2E2E2E2E2E2E2E2E2E2DCE2E2E2E2E2E2E2E2E2E2E2E2E2DCE2E2DCE2E2E2E2E2E2E2E2DCE2E2E2E2E2DCE2E2E2E2E2E2E2E2E2E2E2E2E2E2E2E2E2DCE2E2E2E2E2E2E2DCE2E2E2E2E2E2E2E2E2E2E2E2E2E2E2E2E2E2E2E2E2E2E2E2E2E2E2E2E2E2E2E2E2E2E2E2E2E2E2
310
E2E2E2E2E2E2E2E2E2E2BEE2E2E2E2E2E2E2E2E2E2E2E2E2E2E2E2E2E2E2E2E2E2E2E2E2E2E2E2E2E2E2E2E2E2E2E2E2E2E2E2E2E2E2E2E2E2E2E2E2E2E2E2E2E2E2E2BEE2E2E2E2E2BEBEBEBEBEBEBEBEBEBEE2E2BEE2E2E2E2E2E2E2E2E2E2E2E2E2E2E2E2E2E2E2E2E2E2E2E2E2E2E2E2E2E2E2E2E2E2E2E2E2E2E2E2E2
310
E2E2E2E2E2E2E2E2E2E2DCE2E2E2E2E2E2E2DCDCE2E2E2E2E2E2E2E2E2DCDCE2E2E2E2E2E2E2E2E2E2E2E2DCDCDCE2E2DCE2E2E2E2E2E2E2E2DCE2E2E2E2E2DCE2E2E2E2E2E2E2E2E2E2E2E2E2E2E2E2E2DCE2E2E2E2E2E2E2DCE2E2E2E2E2E2E2E2E2E2E2E2E2E2E2E2E2E2E2E2E2E2E2E2E2E2E2E2E2E2E2E2E2E2E2E2E2
310
E2E2E2E2E2E2E2E2E2E2E2E2BEE2E2E2E2E2E2E2E2E2E2E2E2E2E2E2E2E2E2E2E2E2E2E2E2E2E2E2E2E2E2E2E2E2E2E2E2E2E2E2E2E2E2E2E2E2E2E2E2E2E2E2E2E2E2E2E2BEE2E2E2E2E2BEBEBEBEBEBEBEBEBEBEE2E2BEE2E2E2E2E2E2E2E2E2E2E2E2E2E2E2E2E2E2E2E2E2E2E2E2E2E2E2E2E2E2E2E2E2E2E2E2E2DCDC
310
DCDCDCDCE2DCDCDCDCDCE2DCDCDCDCDCDCDCDCDCE2DCE2DCDCDCDCDCDCDCDCE2E2E2E2E2E2E2E2E2E2E2E2E2DCE2E2E2E2E2E2E2E2E2E2E2E2E2E2DCE2E2E2E2E2DCE2E2E2E2E2E2E2E2E2E2E2E2E2E2E2E2E2E2E2E2E2E2E2E2E2DCE2E2E2E2E2E2E2E2E2E2E2E2E2E2E2E2E2E2E2E2E2E2E2E2E2E2E2E2E2E2E2E2E2E2E2
310
E2E2E2E2E2E2E2E2E2E2E2E2E2E2BEE2E2E2E2E2E2E2E2E2E2E2E2E2E2E2E2E2E2E2E2E2E2E2E2E2E2E2E2E2E2E2E2E2E2E2E2E2E2E2E2E2E2E2E2E2E2E2E2E2E2E2E2E2E2E2E2BEE2E2E2E2E2BEBEBEBEBEBEBEBEBEBEE2E2BEE2E2E2E2E2E2E2E2E2E2E2E2E2E2E2E2E2E2E2E2E2E2E2E2E2E2E2E2E2E2E2E2E2E2E2E2E2
310
DCDCDCDCDCDCE2DCDCDCDCDCE2DCDCDCDCDCDCDCDCDCDCDCE2E2E2E2E2E2E2E2E2E2E2E2E2E2E2E2E2E2E2E2E2DCE2E2E2E2E2E2E2E2E2DCE2E2E2E2E2DCE2E2E2E2E2DCE2E2E2E2E2E2E2E2E2E2E2E2E2E2E2E2E2E2E2E2E2E2E2E2E2DCE2E2E2E2E2E2DCDCE2E2E2E2E2E2E2E2E2E2E2E2E2E2E2E2E2E2E2E2E2E2E2E2E2
310
E2E2E2E2E2E2E2E2E2E2E2E2E2E2E2E2BEE2E2E2E2E2E2E2E2E2E2E2E2E2E2E2E2E2E2E2E2E2E2E2E2E2E2E2E2E2E2E2E2E2E2E2E2E2E2E2E2E2E2E2E2E2E2E2E2E2E2E2E2E2E2E2E2BEE2E2E2E2E2BEBEBEBEBEBEBEBEBEBEE2E2BEE2E2E2E2E2E2E2E2E2E2E2E2E2E2E2E2E2E2E2E2E2E2E2E2E2E2E2E2E2E2E2E2E2E2E2
310
E2E2E2E2E2E2E2E2E2E2E2E2E2E2E2E2DCE2E2E2E2E2E2E2DCE2E2E2E2E2E2E2E2E2E2E2E2E2E2E2E2E2E2E2E2DCDCE2E2E2E2E2E2E2E2E2E2E2E2E2E2E2E2DCE2E2E2E2E2DCDCDCE2E2E2E2E2E2E2E2E2E2E2E2E2E2E2E2E2E2E2E2E2E2E2DCE2E2E2E2E2E2E2E2E2E2E2E2E2E2E2E2E2E2E2E2E2E2E2E2E2E2E2E2E2E2E2
310
E2E2E2E2E2E2E2E2E2E2E2E2E2E2E2E2E2E2BEE2E2E2E2E2E2E2E2E2E2E2E2E2E2E2E2E2E2E2E2E2E2E2E2E2E2E2E2E2E2E2E2E2E2E2E2E2E2E2E2E2E2E2E2E2E2E2E2E2E2E2E2E2E2E2E2BEE2E2E2E2E2BEBEBEBEBEBEBEBEBEBEE2E2BEE2E2E2E2E2E2E2E2E2E2E2E2E2E2E2E2E2E2E2E2E2E2E2E2E2E2E2E2E2E2E2E2E2
310
E2E2E2E2E2E2E2E2E2E2E2E2E2E2E2E2E2E2E2E2E2E2E2E2E2E2E2E2E2E2E2E2E2E2E2E2E2E2E2E2E2E2E2E2E2E2DCE2E2E2E2E2E2E2E2E2E2E2E2E2E2E2E2E2E2DCE2E2E2E2E2DCE2E2E2E2E2E2E2E2E2E2E2E2E2E2E2E2E2E2E2E2E2E2E2E2E2DCE2E2E2E2E2E2E2E2E2E2E2E2E2E2E2E2E2E2E2E2E2E2E2E2E2E2E2E2E2
310
E2E2E2E2E2E2E2E2E2E2E2E2E2E2E2E2E2E2E2E2BEE2E2E2E2E2E2E2E2E2E2E2E2E2E2E2E2E2E2E2E2E2E2E2E2E2E2E2E2E2E2E2E2E2E2E2E2E2E2E2E2E2E2E2E2E2E2E2E2E2E2E2E2E2E2E2E2BEE2E2E2E2E2BEBEBEBEBEBEBEBEBEBEE2E2BEE2E2E2E2E2E2E2E2E2E2E2E2E2E2E2E2E2E2E2E2E2E2E2E2E2E2E2E2E2E2E2
310
E2E2E2E2E2E2E2E2E2E2E2E2E2E2E2E2E2E2E2E2E2E2E2E2E2E2E2E2E2E2E2E2E2E2E2E2E2E2E2E2E2E2E2E2E2E2DCDCE2E2E2E2E2E2E2E2E2E2E2E2E2E2E2E2DCDCE2DCE2E2E2E2E2DCE2E2E2E2E2E2E2E2E2E2E2E2E2E2E2E2E2E2E2E2E2E2E2E2E2DCE2E2E2E2E2E2E2E2E2E2E2E2E2E2E2E2E2E2E2E2E2E2E2E2E2E2E2
310
E2E2E2E2E2E2E2E2E2E2E2E2E2E2E2E2E2E2E2E2E2E2BEE2E2E2E2E2E2E2E2E2E2E2E2E2E2E2E2E2E2E2E2E2E2E2E2E2E2E2E2E2E2E2E2E2E2E2E2E2E2E2E2E2E2E2E2E2E2E2E2E2E2E2E2E2E2E2E2BEE2E2E2E2E2BEBEBEBEBEBEBEBEBEBEE2E2BEE2E2E2E2E2E2E2E2E2E2E2E2E2E2E2E2E2E2E2E2E2E2E2E2E2E2E2E2E2
310
E2E2E2E2E2E2E2E2E2E2E2E2E2E2E2E2E2E2E2E2E2E2E2E2E2E2E2E2E2E2E2E2E2E2E2E2E2E2E2E2E2E2E2E2E2E2E2DCE2E2E2E2E2E2E2E2E2E2E2E2E2E2E2E2E2E2DCDCE2DCE2E2E2E2E2DCE2E2E2E2E2E2E2DCE2E2E2E2E2E2E2E2E2E2E2E2E2E2E2E2E2DCE2E2E2E2E2E2E2E2E2DCE2E2E2E2E2E2E2E2E2E2E2E2E2E2E2
310
E2E2E2E2E2E2E2E2E2E2E2E2E2E2E2E2E2E2E2E2E2E2E2E2BEE2E2E2E2E2E2E2E2E2E2E2E2E2E2E2E2E2E2E2E2E2E2E2E2E2E2E2E2E2E2E2E2E2E2E2E2E2E2E2E2E2E2E2E2E2E2E2E2E2E2E2E2E2E2E2E2BEE2E2E2E2E2BEBEBEBEBEBEBEBEBEBEE2E2BEE2E2E2E2E2E2E2E2E2E2E2E2E2E2E2E2E2E2E2E2E2E2E2E2E2E2E2
310
E2E2E2E2E2E2E2E2E2E2E2E2E2DCDCDCE2DCDCDCDCE2DCDCDCDCDCDCE2DCDCDCDCDCE2E2E2E2E2E2E2E2E2E2E2E2E2DCDCE2E2E2E2E2E2E2E2E2E2E2E2E2E2E2DCE2E2E2E2E2DCDCE2E2E2E2E2DCE2E2E2E2DCE2E2E2E2E2E2E2E2E2E2DCE2E2E2E2E2E2E2E2E2DCE2E2E2E2E2E2E2E2E2DCE2E2E2E2E2E2E2E2E2E2E2E2E2
310
E2E2E2E2E2E2E2E2E2E2E2E2E2E2E2E2E2E2E2E2E2E2E2E2E2E2BEE2E2E2E2E2E2E2E2E2E2E2E2E2E2E2E2E2E2E2E2E2E2E2E2E2E2E2E2E2E2E2E2E2E2E2E2E2E2E2E2E2E2E2E2E2E2E2E2E2E2E2E2E2E2E2E2BEE2E2E2E2E2BEBEBEBEBEBEBEBEBEBEE2E2BEE2E2E2E2E2E2E2E2E2E2E2E2E2E2E2E2E2E2E2E2E2E2E2E2E2
310
E2E2E2E2E2E2E2E2E2E2E2E2E2E2E2DCDCDCDCDCE2DCE2E2DCDCDCDCDCDCDCDCDCDCDCDCE2E2E2E2E2E2E2E2E2E2E2E2DCE2E2E2E2E2E2E2E2DCE2E2E2E2E2E2E2DCE2E2E2E2DCDCDCDCE2E2E2E2E2DCE2E2E2E2E2E2E2E2E2E2E2E2E2E2E2E2E2E2E2E2E2E2E2E2E2DCE2E2E2E2E2E2E2E2E2E2E2E2E2E2E2E2E2E2E2E2E2
310
E2E2E2E2E2E2E2E2E2E2E2E2E2E2E2E2E2E2E2E2E2E2E2E2E2E2E2E2BEE2E2E2E2E2E2E2E2E2E2E2E2E2E2E2E2E2E2E2E2E2E2E2E2E2E2E2E2E2E2E2E2E2E2E2E2E2E2E2E2E2E2E2E2E2E2E2E2E2E2E2E2E2E2E2E2BEE2E2E2E2E2BEBEBEBEBEBEBEBEBEBEE2E2BEE2E2E2E2E2E2E2E2E2E2E2E2E2E2E2E2E2E2E2E2E2E2E2
310
E2E2E2E2E2E2E2E2E2E2E2E2E2E2E2E2E2DCE2DCDCDCE2DCDCE2DCDCDCDCDCDCDCDCDCDCDCDCE2E2E2E2E2E2E2E2E2E2E2DCE2E2E2E2E2E2E2E2E2DCE2E2E2E2E2E2E2E2E2E2DCDCE2E2E2DCE2E2E2E2E2DCE2E2E2E2E2E2DCE2E2E2E2E2E2E2E2E2E2E2E2E2E2E2E2E2E2DCE2E2E2E2E2E2E2E2E2E2E2E2E2E2E2E2E2E2E2
310
E2E2E2E2E2E2E2E2E2E2E2E2E2E2E2E2E2E2E2E2E2E2E2E2E2E2E2E2E2E2BEE2E2E2E2E2E2E2E2E2E2E2E2E2E2E2E2E2E2E2E2E2E2E2E2E2E2E2E2E2E2E2E2E2E2E2E2E2E2E2E2E2E2E2E2E2E2E2E2E2E2E2E2E2E2E2E2BEE2E2E2E2E2BEBEBEBEBEBEBEBEBEBEE2E2BEE2E2E2E2E2E2E2E2E2E2E2E2E2E2E2E2E2E2E2E2E2
310
E2E2E2E2E2E2E2E2E2E2E2E2E2E2E2E2E2E2E2E2E2E2E2E2E2E2E2E2E2DCDCDCE2E2DCE2E2E2E2E2E2E2E2E2E2E2E2E2E2DCDCE2E2E2E2E2E2E2E2E2E2E2E2E2E2E2E2E2E2E2DCDCE2E2E2E2E2DCE2E2E2E2E2DCE2E2E2E2E2E2E2E2E2E2E2E2E2E2E2E2E2E2E2E2E2E2E2E2E2DCE2E2E2E2E2E2E2E2E2E2E2E2E2E2E2E2E2
310
E2E2E2E2E2E2E2E2E2E2E2E2E2E2E2E2E2E2E2E2E2E2E2E2E2E2E2E2E2E2E2E2BEE2E2E2E2E2E2E2E2E2E2E2E2E2E2E2E2E2E2E2E2E2E2E2E2E2E2E2E2E2E2E2E2E2E2E2E2E2E2E2E2E2E2E2E2E2E2E2E2E2E2E2E2E2E2E2E2BEE2E2E2E2E2BEBEBEBEBEBEBEBEBEBEE2E2BEE2E2E2E2E2E2E2E2E2E2E2E2E2E2E2E2E2E2E2
310
E2E2E2E2E2E2E2E2E2E2E2E2E2E2E2E2E2E2E2E2E2DCDCDCDCDCDCDCDCDCDCDCDCDCE2DCDCDCDCDCDCE2E2DCDCDCDCDCDCDCDCE2E2E2E2E2E2E2E2E2E2E2E2E2E2E2E2E2E2E2DCDCE2E2E2E2E2E2E2DCE2E2E2E2E2DCE2E2E2E2E2E2E2E2E2E2E2E2E2E2E2E2E2E2E2E2E2E2E2E2E2DCE2E2E2E2E2E2E2E2E2E2E2E2E2E2E2
310
E2E2E2E2E2E2E2E2E2E2E2E2E2E2E2E2E2E2E2E2E2E2E2E2E2E2E2E2E2E2E2E2E2E2BEE2E2E2E2E2E2E2E2E2E2E2E2E2E2E2E2E2E2E2E2E2E2E2E2E2E2E2E2E2E2E2E2E2E2E2E2E2E2E2E2E2E2E2E2E2E2E2E2E2E2E2E2E2E2E2E2BEE2E2E2E2E2BEBEBEBEBEBEBEBEBEBEE2E2BEE2E2E2E2E2E2E2E2E2E2E2E2E2E2E2E2E2
310
E2E2E2E2E2E2E2E2E2E2E2E2E2E2E2E2E2E2E2E2E2E2DCDCDCDCDCDCDCDCDCDCDCE2E2E2E2DCDCDCE2DCDCDCE2E2E2E2E2E2E2E2E2E2E2E2E2E2E2E2E2E2E2E2E2E2E2E2E2E2DCDCE2E2E2E2E2E2E2E2E2DCE2E2E2E2E2DCE2E2E2E2E2E2E2E2E2E2E2E2E2E2E2E2E2E2E2E2E2E2E2E2E2DCE2E2E2E2E2E2E2E2E2E2E2E2E2
310
E2E2E2E2E2E2E2E2E2E2E2E2E2E2E2E2E2E2E2E2E2E2E2E2E2E2E2E2E2E2E2E2E2E2E2E2BEE2E2E2E2E2E2E2E2E2E2E2E2E2E2E2E2E2E2E2E2E2E2E2E2E2E2E2E2E2E2E2E2E2E2E2E2E2E2E2E2E2E2E2E2E2E2E2E2E2E2E2E2E2E2E2E2BEE2E2E2E2E2BEBEBEBEBEBEBEBEBEBEE2E2BEE2E2E2E2E2E2E2E2E2E2E2E2E2E2E2
310
E2E2E2E2E2E2E2E2E2E2E2E2E2E2E2E2E2E2E2E2E2E2E2E2E2E2E2E2E2E2E2E2E2E2E2E2E2E2E2E2E2E2DCE2DCDCE2E2E2E2E2E2E2E2E2E2E2E2E2E2E2E2E2E2E2E2E2E2E2E2DCDCE2E2E2E2E2E2E2E2E2E2E2DCE2E2E2E2E2DCE2E2E2E2E2E2E2E2E2DCDCE2E2E2E2E2E2E2E2E2E2DCDCE2DCDCDCDCDCE2E2E2E2E2E2E2E2
310
E2E2E2E2E2E2E2E2E2E2E2E2E2E2E2E2E2E2E2E2E2E2E2E2E2E2E2E2E2E2E2E2E2E2E2E2E2E2BEE2E2E2E2E2E2E2E2E2E2E2E2E2E2E2E2E2E2E2E2E2E2E2E2E2E2E2E2E2E2E2E2E2E2E2E2E2E2E2E2E2E2E2E2E2E2E2E2E2E2E2E2E2E2E2E2BEE2E2E2E2E2BEBEBEBEBEBEBEBEBEBEE2E2BEE2E2E2E2E2E2E2E2E2E2E2E2E2
310
E2E2E2E2E2E2E2E2E2E2E2E2E2E2E2E2E2E2E2E2E2E2E2E2E2E2E2E2E2E2E2E2E2E2E2E2E2E2E2E2E2E2E2E2E2E2E2E2E2E2E2E2E2E2E2E2E2E2E2E2E2E2E2E2E2E2E2E2E2E2DCDCE2E2E2E2E2E2E2E2E2E2E2E2E2DCE2E2E2E2E2DCE2DCDCE2E2E2E2DCDCE2E2E2E2E2E2E2E2E2E2E2E2DCDCDCDCDCDCDCDCDCE2E2E2E2E2
310
E2E2E2E2E2E2E2E2E2E2E2E2E2E2E2E2E2E2E2E2E2E2E2E2E2E2E2E2E2E2E2E2E2E2E2E2E2E2E2E2BEE2E2E2E2E2E2E2E2E2E2E2E2E2E2E2E2E2E2E2E2E2E2E2E2E2E2E2E2E2E2E2E2E2E2E2E2E2E2E2E2E2E2E2E2E2E2E2E2E2E2E2E2E2E2E2E2BEE2E2E2E2E2BEBEBEBEBEBEBEBEBEBEE2E2BEE2E2E2E2E2E2E2E2E2E2E2
310
E2E2E2E2E2E2E2E2E2E2E2E2E2E2E2E2E2E2E2E2E2E2E2E2E2E2E2E2E2E2E2E2E2E2E2E2E2E2E2E2E2E2E2E2E2E2E2E2E2E2E2E2E2E2E2E2E2E2E2E2E2E2E2E2E2E2E2E2E2E2DCDCE2E2E2E2E2E2DCE2E2E2E2E2E2E2E2DCE2E2E2E2E2DCE2E2DCDCE2E2E2DCDCE2E2E2E2E2E2E2E2E2E2E2E2DCDCDCDCDCDCDCDCDCE2E2E2
310
E2E2E2E2E2E2E2E2E2E2E2E2E2E2E2E2E2E2E2E2E2E2E2E2E2E2E2E2E2E2E2E2E2E2E2E2E2E2E2E2E2E2BEE2E2E2E2E2E2E2E2E2E2E2E2E2E2E2E2E2E2E2E2E2E2E2E2E2E2E2E2E2E2E2E2E2E2E2E2E2E2E2E2E2E2E2E2E2E2E2E2E2E2E2E2E2E2E2E2BEE2E2E2E2E2BEBEBEBEBEBEBEBEBEBEE2E2BEE2E2E2E2E2E2E2E2E2
310
E2E2E2E2E2E2E2E2E2E2E2E2E2E2E2E2E2E2E2E2E2E2E2E2E2E2E2E2E2E2E2E2E2E2E2E2E2E2E2E2E2E2E2E2E2E2E2E2E2E2E2E2E2E2E2E2E2E2E2E2E2E2E2E2E2E2E2E2E2E2DCDCE2E2E2E2E2E2E2E2E2E2E2E2E2E2E2E2E2DCE2E2E2E2E2DCE2E2E2E2E2E2E2E2E2E2E2E2E2E2E2E2E2E2E2E2E2E2DCDCDCDCDCDCE2E2E2
310
E2E2E2E2E2E2E2E2E2E2E2E2E2E2E2E2E2E2E2E2E2E2E2E2E2E2E2E2E2E2E2E2E2E2E2E2E2E2E2E2E2E2E2E2BEE2E2E2E2E2E2E2E2E2E2E2E2E2E2E2E2E2E2E2E2E2E2E2E2E2E2E2E2E2E2E2E2E2E2E2E2E2E2E2E2E2E2E2E2E2E2E2E2E2E2E2E2E2E2E2E2BEE2E2E2E2E2BEBEBEBEBEBEBEBEBEBEE2E2BEE2E2E2E2E2E2E2
310
E2E2E2E2E2E2E2E2E2E2E2E2E2E2E2E2E2E2E2E2E2E2E2E2E2E2E2E2E2E2E2E2E2E2E2E2E2E2E2E2E2E2E2E2DCDCDCDCDCDCDCDCDCDCE2E2E2E2E2E2E2E2E2E2E2E2E2E2E2E2DCDCE2E2E2E2E2E2E2E2E2E2E2E2E2E2E2E2E2E2E2DCE2E2E2E2E2DCE2E2E2E2E2E2E2E2E2E2E2E2E2E2E2E2E2E2E2E2E2E2DCDCDCDCDCE2E2
310
E2E2E2E2E2E2E2E2E2E2DCDCE2E2E2E2E2E2E2E2E2E2E2E2E2E2E2E2E2E2E2E2E2E2E2E2E2E2E2E2E2E2E2E2E2E2BEE2E2E2E2E2E2E2E2E2E2E2E2E2E2E2E2E2E2E2E2E2E2E2E2E2E2E2E2E2E2E2E2E2E2E2E2E2E2E2E2E2E2E2E2E2E2E2E2E2E2E2E2E2E2E2E2BEE2E2E2E2E2BEBEBEBEBEBEBEBEBEBEE2E2BEE2E2E2E2E2
310
E2E2E2E2E2E2E2E2E2E2E2E2E2E2E2E2E2E2E2E2E2E2E2E2E2E2E2E2E2E2E2E2E2E2E2E2E2E2E2E2E2E2E2E2E2E2DCDCE2DCDCDCDCDCDCDCE2E2E2E2E2E2DCE2E2E2E2E2E2E2DCDCE2E2DCE2E2E2E2E2E2E2E2DCE2E2E2E2E2E2E2E2E2DCE2E2E2E2E2DCE2E2E2E2E2E2DCE2E2E2E2E2E2E2E2E2E2E2E2E2E2E2DCDCDCDCDC
310
DCE2E2E2E2E2E2E2E2E2E2E2E2E2E2E2E2E2E2E2E2E2E2E2E2E2E2E2E2E2E2E2E2E2E2E2E2E2E2E2E2E2E2E2E2E2E2E2BEE2E2E2E2E2E2E2E2E2E2E2E2E2E2E2E2E2E2E2E2E2E2E2E2E2E2E2E2E2E2E2E2E2E2E2E2E2E2E2E2E2E2E2E2E2E2E2E2E2E2E2E2E2E2E2E2BEE2E2E2E2E2BEBEBEBEBEBEBEBEBEBEE2E2BEE2E2E2
310
E2E2E2E2E2E2E2E2E2E2E2E2E2E2E2E2E2E2E2E2E2E2E2E2E2E2E2E2E2E2E2E2E2E2E2E2E2E2E2E2E2E2E2E2E2E2E2E2DCDCE2DCDCDCDCDCDCDCE2E2E2E2E2E2E2E2E2E2E2E2DCDCE2E2E2E2DCE2E2E2E2E2E2E2E2E2E2E2E2E2E2E2E2E2E2DCBEBEBEBEBEDCE2E2E2E2E2E2E2E2E2E2E2E2E2E2E2E2E2E2E2E2E2E2E2E2E2
310
E2E2E2E2E2E2E2E2E2E2E2E2E2E2E2E2E2E2E2E2E2E2E2E2E2E2E2E2E2E2E2E2E2E2E2E2E2E2E2E2E2E2E2E2E2E2E2E2E2E2BEE2E2E2E2E2E2E2E2E2E2E2E2E2E2E2E2E2E2E2E2E2E2E2E2E2E2E2E2E2E2E2E2E2E2E2E2E2E2E2E2E2E2E2E2E2E2E2E2E2E2E2E2E2E2E2E2BEE2E2E2E2E2BEBEBEBEBEBEBEBEBEBEE2E2BEE2
310
E2E2E2E2E2E2E2E2E2E2E2E2E2E2E2E2E2E2E2E2E2E2E2E2E2E2E2E2E2E2E2E2E2E2E2E2E2DCDCDCDCDCDCDCE2DCE2DCDCDCDCDCDCDCDCDCDCDCDCDCE2E2E2E2E2E2E2E2E2E2DCDCE2E2E2E2E2E2E2E2E2E2E2E2E2E2E2E2E2E2E2E2E2E2E2E2E2DCE2E2E2E2E2DCE2E2E2E2E2E2E2E2E2E2E2E2E2E2E2E2E2E2E2E2E2E2E2
310
E2E2DCE2E2E2E2E2E2E2E2E2E2E2E2E2E2E2E2E2E2E2E2E2E2E2E2E2E2E2E2E2E2E2E2E2E2E2E2E2E2E2E2E2E2E2E2E2E2E2E2E2BEE2E2E2E2E2E2E2E2E2E2E2E2E2E2E2E2E2E2E2E2E2E2E2E2E2E2E2E2E2E2E2E2E2E2E2E2E2E2E2E2E2E2E2E2E2E2E2E2E2E2E2E2E2E2E2E2BEE2E2E2E2E2BEBEBEBEBEBEBEBEBEBEE2E2
310
BEE2E2E2E2E2E2E2E2E2E2E2E2E2E2E2E2E2E2E2E2E2E2E2E2E2E2E2E2E2E2E2E2E2E2E2E2E2E2DCDCDCDCDCDCDCDCE2E2DCDCDCDCDCDCDCDCDCDCDCDCDCE2DCDCDCDCDCDCDCDCDCE2E2E2E2E2E2E2E2E2E2E2E2E2E2E2E2E2E2E2E2E2E2E2E2E2E2DCBEBEBEBEBEBEBEDCE2E2E2DCE2E2E2E2E2E2E2E2E2E2E2E2E2E2E2E2
310
E2E2E2E2DCE2E2E2E2E2E2E2E2E2E2E2E2E2E2E2E2E2E2E2E2E2E2E2E2E2E2E2E2E2E2E2E2E2E2E2E2E2E2E2E2E2E2E2E2E2E2E2E2E2BEE2E2E2E2E2E2E2E2E2E2E2E2E2E2E2E2E2E2E2E2E2E2E2E2E2E2E2E2E2E2E2E2E2E2E2E2E2E2E2E2E2E2E2E2E2E2E2E2E2E2E2E2E2E2E2E2BEE2E2E2E2E2BEBEBEBEBEBEBEBEBEBE
310
E2E2BEE2E2E2E2E2E2E2E2E2E2E2E2E2E2E2E2E2E2E2E2E2E2E2E2E2E2E2E2E2E2E2E2E2E2E2E2E2E2DCDCDCDCE2DCDCDCDCE2DCDCE2E2DCE2DCDCE2E2E2E2E2E2E2E2E2E2DCDCE2E2E2E2E2DCDCE2E2E2E2E2E2E2E2E2E2E2E2E2E2E2E2E2E2E2E2E2E2E2DCE2E2E2E2E2DCE2E2E2E2E2E2E2E2E2E2E2E2E2E2E2E2E2E2E2
310
E2E2E2E2E2E2DCE2E2E2E2E2E2E2E2E2E2E2E2E2E2E2E2E2E2E2E2E2E2E2E2E2E2E2E2E2E2E2E2E2E2E2E2E2E2E2E2E2E2E2E2E2E2E2E2E2BEE2E2E2E2E2E2E2E2E2E2E2E2E2E2E2E2E2E2E2E2E2E2E2E2E2E2E2E2E2E2E2E2E2E2E2E2E2E2E2E2E2E2E2E2E2E2E2E2E2E2E2E2E2E2E2E2BEE2E2E2E2E2BEBEBEBEBEBEBEBE
310
BEBEE2E2BEE2E2E2E2E2E2E2E2E2E2E2E2E2E2E2E2E2E2E2E2E2E2E2E2E2E2E2E2E2E2E2E2E2E2E2E2E2E2E2E2E2E2E2E2E2E2E2E2E2E2E2E2E2E2E2E2E2E2E2E2E2E2E2E2E2E2E2E2E2E2E2E2E2E2E2E2E2E2E2E2E2E2E2E2E2E2E2E2E2E2E2E2E2DCE2DCE2E2DCDCDCDCDCDCDCE2E2DCE2DCE2E2E2E2E2E2E2E2E2E2E2E2
310
E2E2E2E2E2E2E2E2DCE2E2E2E2E2E2E2E2E2E2E2E2E2E2E2E2E2E2E2E2E2E2E2E2E2E2E2E2E2E2E2E2E2E2E2E2E2E2E2E2E2E2E2E2E2E2E2E2E2BEE2E2E2E2E2E2E2E2E2E2E2E2E2E2E2E2E2E2E2E2E2E2E2E2E2E2E2E2E2E2E2E2E2E2E2E2E2E2E2E2E2E2E2E2E2E2E2E2E2E2E2E2E2E2E2E2BEE2E2E2E2E2BEBEBEBEBEBE
310
BEBEBEBEE2E2BEE2E2E2E2E2E2E2E2E2E2E2E2E2E2E2E2E2E2E2E2E2E2E2E2E2E2E2E2E2E2E2E2E2E2E2E2E2E2E2E2E2E2E2E2E2E2E2E2E2E2E2E2E2E2E2E2E2E2E2E2E2E2E2E2E2E2E2E2E2E2E2E2E2E2E2DCE2E2E2E2DCDCDCDCDCDCDCDCDCDCDCDCDCBEDCBEDCDCBEDC2D2D2DBEBEDCDCBEDCBEDCDCDCDCDCDCDCDCDCDC
310
DCDCDCE2E2E2E2E2E2E2DCE2E2E2E2E2E2E2E2E2E2E2E2E2E2E2E2E2E2E2E2E2E2E2E2E2E2E2E2E2E2E2E2E2E2E2E2E2E2E2E2E2E2E2E2E2E2E2E2E2BEE2E2E2E2E2E2E2E2E2E2E2E2E2E2E2E2E2E2E2E2E2E2E2E2E2E2E2E2E2E2E2E2E2E2E2E2E2E2E2E2E2E2E2E2E2E2E2E2E2E2E2E2E2E2E2E2BEE2E2E2E2E2BEBEBEBE
310
BEBEBEBEBEBEE2E2BEE2E2E2E2E2E2E2E2E2E2E2E2E2E2E2E2E2E2E2E2E2E2E2E2E2E2E2E2E2E2E2E2E2E2E2E2E2E2E2E2E2E2E2E2E2E2E2E2E2E2E2E2E2E2E2E2E2E2E2E2E2E2E2E2DCE2E2E2E2E2E2E2E2E2E2E2E2E2E2E2DCE2E2E2E2E2E2E2E2E2E2E2E2BEE2BEE2DC2DDCDCDCDCDC2DDCE2BEE2BEE2E2E2E2E2E2E2E2
310
E2E2E2E2DCE2E2E2E2E2E2E2DCE2E2E2E2E2E2E2E2E2E2E2E2E2E2E2E2E2E2E2E2E2E2E2E2E2E2E2E2E2E2E2E2E2E2E2E2E2E2E2E2E2E2E2E2E2E2E2E2E2BEE2E2E2E2E2E2E2E2E2E2E2E2E2E2E2E2E2E2E2E2E2E2E2E2E2E2E2E2E2E2E2E2E2E2E2E2E2E2E2E2E2E2E2E2E2E2E2E2E2E2E2E2E2E2E2E2BEE2E2E2E2E2BEBE
310
BEBEBEBEBEBEBEBEE2E2BEE2E2E2E2E2E2E2E2E2E2E2E2E2E2E2E2E2E2E2E2E2E2E2E2E2E2E2E2E2E2E2E2E2E2E2E2E2E2E2E2E2E2E2E2E2E2E2E2E2E2E2E2E2E2E2E2E2E2E2E2E2E2E2E2DCE2E2E2E2E2E2E2DCDCE2E2E2E2E2E2DCDCDCE2E2E2E2E2E2E2E2E2E2BEE2BEE2DC2DE2E2E2E2E22DDCE2BEE2BEE2E2E2E2E2E2
310
E2E2E2E2DCDCDCE2E2E2E2E2E2E2DCE2E2E2E2E2E2E2E2E2E2E2E2E2E2E2E2E2E2E2E2E2E2E2E2E2E2E2E2E2E2E2E2E2E2E2E2E2E2E2E2E2E2E2E2E2E2E2E2E2BEE2E2E2E2E2E2E2E2E2E2E2E2E2E2E2E2E2E2E2E2E2E2E2E2E2E2E2E2E2E2E2E2E2E2E2E2E2E2E2E2E2E2E2E2E2E2E2E2E2E2E2E2E2E2E2E2BEE2E2E2E2E2
310
BEBEBEBEBEBEBEBEBEBEE2E2BEE2E2E2E2E2E2E2E2E2E2E2E2E2E2E2E2E2E2E2E2E2E2E2E2E2E2E2E2E2E2E2E2E2E2E2E2E2E2E2E2E2E2E2E2E2E2E2E2E2E2E2E2E2E2E2E2E2E2E2E2E2E2E2E2E2E2E2E2E2E2E2E2E2E2E2E2E2E2E2E2DCDCDCDCE2E2E2E2E2E2E2E2E2BEE2BEE2DC2DE2E2E2E2E22DDCE2BEE2BEE2E2E2E2
310
E2E2E2E2E2DCDCDCDCE2E2E2E2E2E2E2DCE2E2E2E2E2E2E2E2E2E2E2E2E2E2E2E2E2E2E2E2E2E2E2E2E2E2E2E2E2E2E2E2E2E2E2E2E2E2E2E2E2E2E2E2E2E2E2E2E2BEE2E2E2E2E2E2E2E2E2E2E2E2E2E2E2E2E2E2E2E2E2E2E2E2E2E2E2E2E2E2E2E2E2E2E2E2E2E2E2E2E2E2E2E2E2E2E2E2E2E2E2E2E2E2E2E2BEE2E2E2
310
E2E2BEBEBEBEBEBEBEBEBEBEE2E2BEE2E2E2E2E2E2E2E2E2E2E2E2E2E2E2E2E2E2E2E2E2E2E2E2E2E2E2E2E2E2E2E2E2E2E2E2E2E2E2E2E2E2E2E2E2E2E2E2E2E2E2E2E2E2E2E2E2E2E2E2E2E2E2E2E2E2E2E2E2E2E2E2E2E2E2E2E2E2E2E2DCE2E2DCE2E2E2E2E2E2E2E2E2BEE2BEE2DC2DE2E2E2E2E22DDCE2BEE2BEE2E2
310
E2E2E2E2E2E2E2DCE2E2DCE2E2E2E2E2E2E2DCE2E2E2E2E2E2E2E2E2E2E2E2E2E2E2E2E2E2E2E2E2E2E2E2E2E2E2E2E2E2E2E2E2E2E2E2E2E2E2E2E2E2E2E2E2E2E2E2E2BEE2E2E2E2E2E2E2E2E2E2E2E2E2E2E2E2E2E2E2E2E2E2E2E2E2E2E2E2E2E2E2E2E2E2E2E2E2E2E2E2E2E2E2E2E2E2E2E2E2E2E2E2E2E2E2E2BEE2
310
E2E2E2E2BEBEBEBEBEBEBEBEBEBEE2E2BEE2E2E2E2E2E2E2E2E2E2E2E2E2E2E2E2E2E2E2E2E2E2E2E2E2E2E2E2E2E2E2E2E2E2E2E2E2E2E2E2E2E2E2E2E2E2E2E2E2E2E2E2E2E2E2E2E2E2E2E2E2E2E2E2E2E2E2E2E2E2E2E2E2E2E2E2E2E2E2E2DCDCDCDCDCDCDCDCDCDCDCDCDCBEDCBEE2DCBE2DDCDC2D2DBEDCDCBEDCBE
310
DCDCDCDCDCDCDCDCDCDCDCDCDCE2E2E2E2E2E2E2DCE2E2E2E2E2E2E2E2E2E2E2E2E2E2E2E2E2E2E2E2E2E2E2E2E2E2E2E2E2E2E2E2E2E2E2E2E2E2E2E2E2E2E2E2E2E2E2E2E2BEE2E2E2E2E2E2E2E2E2E2E2E2E2E2E2E2E2E2E2E2E2E2E2E2E2E2E2E2E2E2E2E2E2E2E2E2E2E2E2E2E2E2E2E2E2E2E2E2E2E2E2E2E2E2E2E2
310
BEE2E2E2E2E2BEBEBEBEBEBEBEBEBEBEE2E2BEE2E2E2E2E2E2E2E2E2E2E2E2E2E2E2E2E2E2E2E2E2E2E2E2E2E2E2E2E2E2E2E2E2E2E2E2E2E2E2E2E2E2E2E2E2E2E2E2E2E2E2E2E2E2E2E2E2E2E2E2E2E2E2E2E2E2E2E2E2E2E2E2E2E2E2E2E2E2E2E2E2E2E2DCDCDCE2E2E2E2E2E2E2DCE2DCDCE2DCDCDCE2E2E2E2E2E2DC
310
E2DCE2E2E2E2E2E2E2DCE2E2E2E2E2E2E2E2E2E2E2E2DCE2E2E2E2E2E2E2E2DCE2E2E2E2E2E2E2E2E2E2E2E2E2E2E2E2E2E2E2E2E2E2E2E2E2E2E2E2E2E2E2E2E2E2E2E2E2E2E2E2BEE2E2E2E2E2E2E2E2E2E2E2E2E2E2E2E2E2E2E2E2E2E2E2E2E2E2E2E2E2E2E2E2E2E2E2E2E2E2E2E2E2E2E2E2E2E2E2E2E2E2E2E2E2E2
310
E2E2BEE2E2E2E2E2BEBEBEBEBEBEBEBEBEBEE2E2BEE2E2E2E2E2E2E2E2E2E2E2E2E2E2E2E2E2E2E2E2E2E2E2E2E2E2E2E2E2E2E2E2E2E2E2E2E2E2E2E2E2E2E2E2E2E2E2E2E2E2E2E2E2E2E2E2E2E2E2E2E2E2E2E2E2E2E2E2E2E2E2E2E2E2E2E2E2E2E2E2E2DCDCE2DCE2E2E2E2E2E2E2E2E2E2E2DCDCE2DCE2E2E2E2E2E2
310
E2E2E2E2E2E2E2E2E2E2E2DCDCE2E2E2E2E2E2E2E2E2E2E2DCE2E2E2E2E2E2E2E2DCE2E2E2E2E2E2E2E2E2E2E2E2E2E2E2E2E2E2E2E2E2E2E2E2E2E2E2E2E2E2E2E2E2E2E2E2E2E2E2E2BEE2E2E2E2E2E2E2E2E2E2E2E2E2E2E2E2E2E2E2E2E2E2E2E2E2E2E2E2E2E2E2E2E2E2E2E2E2E2E2E2E2E2E2E2E2E2E2E2E2E2E2E2
310
E2E2E2E2BEE2E2E2E2E2BEBEBEBEBEBEBEBEBEBEE2E2BEE2E2E2E2E2E2E2E2E2E2E2E2E2E2E2E2E2E2E2E2E2E2E2E2E2E2E2E2E2E2E2E2E2E2E2E2E2E2E2E2E2E2E2E2E2E2E2E2E2E2E2E2E2E2E2E2E2E2E2E2E2E2E2E2E2E2E2E2E2E2E2E2E2E2E2E2E2E2DCDCDCE2E2E2E2E2E2E2E2E2E2E2E2E2DCDCE2E2E2E2E2E2E2E2
310
E2E2E2E2E2E2E2E2E2E2E2E2E2DCDCE2E2E2E2E2E2E2E2E2E2E2DCE2E2DCE2E2E2E2E2E2E2E2E2E2E2E2E2E2E2E2E2E2E2E2E2E2E2E2E2E2E2E2E2E2E2E2E2E2E2E2E2E2E2E2E2E2E2E2E2E2BEE2E2E2E2E2E2E2E2E2E2E2E2E2E2E2E2E2E2E2E2E2E2E2E2E2E2E2E2E2E2E2E2E2E2E2E2E2E2E2E2E2E2E2E2E2E2E2E2E2E2
310
E2E2E2E2E2E2BEE2E2E2E2E2BEBEBEBEBEBEBEBEBEBEE2E2BEE2E2E2E2E2E2E2E2E2E2E2E2E2E2E2E2E2E2E2E2E2E2E2E2E2E2E2E2E2E2E2E2E2E2E2E2E2E2E2E2E2E2E2E2E2E2E2E2E2E2E2E2E2E2E2E2E2E2E2E2E2E2E2E2E2E2E2E2E2E2E2E2E2E2E2E2DCDCE2E2E2E2E2E2E2E2E2E2E2E2E2DCDCDCE2E2E2E2E2E2E2E2
310
E2E2E2E2E2E2E2E2E2E2E2E2E2E2E2DCE2E2E2E2DCE2E2E2E2E2E2E2DCE2E2DCE2E2E2E2E2E2E2E2E2E2E2E2E2E2E2E2E2E2E2E2E2E2E2E2E2E2E2E2E2E2E2E2E2E2E2E2E2E2E2E2E2E2E2E2E2E2BEE2E2E2E2E2E2E2E2E2E2E2E2E2E2E2E2E2E2E2E2E2E2E2E2E2E2E2E2E2E2E2E2E2E2E2E2E2E2E2E2E2E2E2E2E2E2E2E2
310
E2E2E2E2E2E2E2E2BEE2E2E2E2E2BEBEBEBEBEBEBEBEBEBEE2E2BEE2E2E2E2E2E2E2E2E2E2E2E2E2E2E2E2E2E2E2E2E2E2E2E2E2E2E2E2E2E2E2E2E2E2E2E2E2E2E2E2E2E2E2E2E2DCDCE2E2E2E2E2E2E2E2E2E2E2E2E2E2E2E2E2E2E2E2E2E2E2E2E2E2DCDCDCE2E2E2E2E2E2E2E2E2E2E2E2E2DCDCE2E2E2E2E2E2E2E2E2
310
E2E2E2E2E2E2DCE2E2E2E2E2E2E2E2E2E2DCE2E2E2DCDCE2E2E2E2E2E2E2DCE2E2E2E2E2E2E2E2E2E2E2E2E2E2E2E2E2E2E2E2E2E2E2E2E2E2E2E2E2E2E2E2E2E2E2E2E2E2E2E2E2E2E2E2E2E2E2E2E2BEE2E2E2E2E2E2E2E2E2E2E2E2E2E2E2E2E2E2E2E2E2E2E2E2E2E2E2E2E2E2E2E2E2E2E2E2E2E2E2E2E2E2E2E2E2E2
310
E2E2E2E2E2E2E2E2E2E2BEE2E2E2E2E2BEBEBEBEBEBEBEBEBEBEE2E2BEE2E2E2E2E2E2E2E2E2E2E2E2E2E2E2E2E2E2E2E2E2E2E2E2E2E2E2E2E2E2E2E2E2E2E2DCDCDCDCDCDCDCDCDCDCDCDCE2E2DCDCE2DCDCE2DCDCDCDCDCDCE2E2E2E2E2E2E2E2E2E2DCDCE2E2E2E2E2E2E2E2E2E2E2E2E2E2DCDCE2E2E2E2E2E2E2E2E2
310
E2E2E2E2E2E2E2E2E2E2E2E2E2E2E2E2E2E2E2DCE2E2E2E2E2E2E2E2E2E2E2E2DCE2E2E2E2E2E2E2E2E2E2E2E2E2E2E2E2E2E2E2E2E2E2E2E2E2E2E2E2E2E2E2E2E2E2E2E2E2E2E2E2E2E2E2E2E2E2E2E2E2BEE2E2E2E2E2E2E2E2E2E2E2E2E2E2E2E2E2E2E2E2E2E2E2E2E2E2E2E2E2E2E2E2E2E2E2E2E2E2E2E2E2E2E2E2
310
E2E2E2E2E2E2E2E2E2E2E2E2BEE2E2E2E2E2BEBEBEBEBEBEBEBEBEBEE2E2BEE2E2E2E2E2E2E2E2E2E2E2E2E2E2E2E2E2E2E2E2E2E2E2E2E2E2E2E2E2E2E2E2E2E2E2DCDCDCDCDCDCDCDCDCDCDCDCE2E2DCDCDCDCDCDCDCDCDCDCDCE2E2DCDCDCDCDCDCDCDCDCE2E2E2E2E2E2E2E2E2E2E2E2E2E2DCDCE2E2E2E2E2E2E2E2E2
310
E2E2E2E2E2E2E2E2E2E2E2E2E2E2E2E2E2E2E2E2E2DCE2E2E2E2E2E2E2E2E2E2E2E2DCE2E2E2E2E2E2E2E2E2E2E2E2E2E2E2E2E2E2E2E2E2E2E2E2E2E2E2E2E2E2E2E2E2E2E2E2E2E2E2E2E2E2E2E2E2E2E2E2E2BEE2E2E2E2E2E2E2E2E2E2E2E2E2E2E2E2E2E2E2E2E2E2E2E2E2E2E2E2E2E2E2E2E2E2E2E2E2E2E2E2E2E2
310
E2E2E2E2E2E2E2E2E2E2E2E2E2E2BEE2E2E2E2E2BEBEBEBEBEBEBEBEBEBEE2E2BEE2E2E2E2E2E2E2E2E2E2E2E2E2E2E2E2E2E2E2E2E2E2E2E2E2E2E2E2E2E2E2E2E2E2DCDCE2E2E2DCDCDCE2E2E2E2E2E2E2DCDCDCDCDCDCDCDCDCDCDCDCE2E2E2E2E2E2E2E2E2E2E2E2E2E2E2E2E2E2E2E2E2DCDCDCE2E2E2E2E2E2E2E2E2
310
E2E2E2E2E2E2E2E2E2E2E2E2E2E2E2E2E2E2E2E2E2E2E2E2E2E2E2E2E2E2E2DCE2E2E2E2DCE2E2E2E2E2E2E2E2E2E2E2E2E2E2E2E2E2E2E2E2E2E2E2E2E2E2E2E2E2E2E2E2E2E2E2E2E2E2E2E2E2E2E2E2E2E2E2E2E2BEE2E2E2E2E2E2E2E2E2E2E2E2E2E2E2E2E2E2E2E2E2E2E2E2E2E2E2E2E2E2E2E2E2E2E2E2E2E2E2E2
310
E2E2E2E2E2E2E2E2E2E2E2E2E2E2E2E2BEE2E2E2E2E2BEBEBEBEBEBEBEBEBEBEE2E2BEE2E2E2E2E2E2E2E2E2E2E2E2E2E2E2E2E2E2E2E2E2E2E2E2E2E2E2E2E2E2E2E2E2E2E2E2E2E2E2E2E2E2E2E2E2E2E2E2E2E2E2E2E2E2E2E2E2E2E2E2E2E2E2E2E2E2E2E2E2E2E2E2E2E2E2E2E2E2E2E2DCDCE2E2E2E2E2E2E2E2E2E2
310
E2E2E2E2E2E2E2E2E2E2E2E2E2E2E2E2E2E2E2E2E2DCDCDCE2DCDCDCDCDCE2E2E2E2E2E2E2E2DCE2E2E2E2E2E2E2E2E2E2E2E2E2E2E2E2E2E2E2E2E2E2E2E2E2E2E2E2E2E2E2E2E2E2E2E2E2E2E2E2E2E2E2E2E2E2E2E2E2BEE2E2E2E2E2E2E2E2E2E2E2E2E2E2E2E2E2E2E2E2E2E2E2E2E2E2E2E2E2E2E2E2E2E2E2E2E2E2
310
E2E2E2E2E2E2E2E2E2E2E2E2E2E2E2E2E2E2BEE2E2E2E2E2BEBEBEBEBEBEBEBEBEBEE2E2BEE2E2E2E2E2E2E2E2E2E2E2E2E2E2E2E2E2E2E2E2E2E2E2E2E2E2E2E2E2E2E2E2E2E2E2E2E2E2E2E2E2E2E2E2E2E2E2E2E2E2E2E2E2E2E2E2E2E2E2E2E2E2E2E2E2E2E2E2E2E2E2E2E2E2E2E2E2E2DCDCE2E2E2E2E2E2E2E2E2E2
310
E2E2E2E2E2E2E2E2E2E2E2E2E2E2E2E2E2E2E2E2E2E2E2DCDCDCDCDCDCDCDCDCE2E2E2E2E2E2E2E2DCE2E2E2E2E2E2E2E2E2E2E2E2E2E2E2E2E2E2E2E2E2E2E2E2E2E2E2E2E2E2E2E2E2E2E2E2E2E2E2E2E2E2E2E2E2E2E2E2E2BEE2E2E2E2E2E2E2E2E2E2E2E2E2E2E2E2E2E2E2E2E2E2E2E2E2E2E2E2E2E2E2E2E2E2E2E2
310
E2E2E2E2E2E2E2E2E2E2E2E2E2E2E2E2E2E2E2E2BEE2E2E2E2E2BEBEBEBEBEBEBEBEBEBEE2E2BEE2E2E2E2E2E2E2E2E2E2E2E2E2E2E2E2E2E2E2E2E2E2E2E2E2E2E2E2E2E2E2E2E2E2E2E2E2E2E2E2E2E2E2E2E2E2E2E2E2E2E2E2E2E2E2E2E2E2E2E2E2E2E2E2E2E2E2E2E2E2E2E2E2E2E2DCDCDCE2E2E2E2E2E2E2E2E2E2
310
E2E2E2E2E2E2E2E2E2E2E2E2E2E2E2E2E2DCE2E2E2E2E2E2E2E2DCDCDCDCDCDCE2DCE2E2E2E2E2E2E2E2DCE2E2E2E2E2E2E2E2E2E2E2E2E2E2E2E2E2E2E2E2E2E2E2E2E2E2E2E2E2E2E2E2E2E2E2E2E2E2E2E2E2E2E2E2E2E2E2E2E2BEE2E2E2E2E2E2E2E2E2E2E2E2E2E2E2E2E2E2E2E2E2E2E2E2E2E2E2E2E2E2E2E2E2E2
310
E2E2E2E2E2E2E2E2E2E2E2E2E2E2E2E2E2E2E2E2E2E2BEE2E2E2E2E2BEBEBEBEBEBEBEBEBEBEE2E2BEE2E2E2E2E2E2E2E2E2E2E2E2E2E2E2E2E2E2E2E2E2E2E2E2E2E2E2E2E2E2E2E2E2E2E2E2E2E2E2E2E2E2E2E2E2E2E2E2E2E2E2E2DCDCDCE2E2E2E2E2E2E2E2E2E2E2E2E2E2E2E2E2E2DCDCE2E2E2E2E2E2E2E2E2E2E2
310
E2E2E2E2E2E2E2E2E2E2E2E2E2E2E2E2E2E2E2E2E2E2E2E2E2E2E2E2E2DCDCDCDCDCDCE2E2E2E2E2E2E2E2E2DCDCE2E2E2E2E2E2E2E2E2E2E2E2E2E2E2E2E2E2E2E2E2E2E2E2E2E2E2E2E2E2E2E2E2E2E2E2E2E2E2E2E2E2E2E2E2E2E2E2BEE2E2E2E2E2E2E2E2E2E2E2E2E2E2E2E2E2E2E2E2E2E2E2E2E2E2E2E2E2E2E2E2
310
E2E2E2E2E2E2E2E2E2E2E2E2E2E2E2E2E2E2E2E2E2E2E2E2BEE2E2E2E2E2BEBEBEBEBEBEBEBEBEBEE2E2BEE2E2E2E2E2E2E2E2E2E2E2E2E2E2E2E2E2E2E2E2E2E2E2E2E2E2E2E2E2E2E2E2E2E2E2E2E2E2E2E2E2E2E2E2E2E2E2E2E2E2E2E2DCDCDCE2E2E2E2E2E2E2E2E2E2E2E2E2E2E2E2DCDCE2E2E2E2E2E2E2E2E2E2E2
310
E2E2E2E2E2E2E2E2E2E2E2E2E2E2E2E2E2E2DCE2E2E2E2E2E2E2E2E2E2E2E2DCDCDCDCDCDCE2E2E2DCDCE2E2E2E2DCE2E2E2E2E2DCE2E2E2E2E2E2E2E2E2E2E2E2E2E2E2E2E2E2E2E2E2E2E2E2E2E2E2E2E2E2E2E2E2E2E2E2E2E2E2E2E2E2E2BEE2E2E2E2E2E2E2E2E2E2E2E2E2E2E2E2E2E2E2E2E2E2E2E2E2E2E2E2E2E2
310
E2E2E2E2E2E2E2E2E2E2E2E2E2E2E2E2E2E2E2E2E2E2E2E2E2E2BEE2E2E2E2E2BEBEBEBEBEBEBEBEBEBEE2E2BEE2E2E2E2E2E2E2E2E2E2E2E2E2E2E2E2E2E2E2E2E2E2E2E2E2E2E2E2E2E2E2E2E2E2E2E2E2E2E2E2E2E2DCDCDCDCDCDCDCDCDCDCDCDCDCE2DCDCDCDCDCE2DCDCDCDCDCDCDCDCDCE2E2E2E2E2E2E2E2E2E2E2
310
E2E2E2E2E2E2E2E2E2E2E2E2E2E2E2E2E2E2E2E2E2E2E2E2E2E2E2E2E2E2E2E2E2E2E2E2E2E2E2E2E2E2DCDCE2E2E2E2DCE2E2E2E2E2E2E2E2E2E2E2E2E2E2E2E2E2E2E2E2E2E2E2E2E2E2E2E2E2E2E2E2E2E2E2E2E2E2E2E2E2E2E2E2E2E2E2E2E2BEE2E2E2E2E2E2E2E2E2E2E2E2E2E2E2E2E2E2E2E2E2E2E2E2E2E2E2E2
310
E2E2E2E2E2E2E2E2E2E2E2E2E2E2E2E2E2E2E2E2E2E2E2E2E2E2E2E2BEE2E2E2E2E2BEBEBEBEBEBEBEBEBEBEE2E2BEE2E2E2E2E2E2E2E2E2E2E2E2E2E2E2E2E2E2E2E2E2E2E2E2E2E2E2E2E2E2E2E2E2E2E2E2E2E2E2E2E2DCDCDCDCDCDCDCDCDCDCDCDCDCDCDCDCDCDCDCDCE2E2E2E2E2E2E2E2E2E2E2E2E2E2E2E2E2E2E2
310
E2E2E2E2E2E2E2E2E2E2E2E2DCDCE2E2E2E2E2E2E2E2E2E2E2E2E2E2E2E2E2E2E2E2E2E2E2DCE2E2E2E2E2E2E2E2E2E2E2E2DCE2E2E2E2E2E2E2E2E2E2E2E2E2E2E2E2E2E2E2E2E2E2E2E2E2E2E2E2E2E2E2E2E2E2E2E2E2E2E2E2E2E2E2E2E2E2E2E2E2BEE2E2E2E2E2E2E2E2E2E2E2E2E2E2E2E2E2E2E2E2E2E2E2E2E2E2
310
E2E2E2E2E2E2E2E2E2E2E2E2E2E2E2E2E2E2E2E2E2E2E2E2E2E2E2E2E2E2BEE2E2E2E2E2BEBEBEBEBEBEBEBEBEBEE2E2BEE2E2E2E2E2E2E2E2E2E2E2E2E2E2E2E2E2E2E2E2E2E2E2E2E2E2E2E2E2E2E2E2E2E2E2E2E2E2E2E2E2E2E2E2E2E2E2E2E2E2E2E2E2E2E2E2E2E2E2E2E2E2E2E2E2E2E2E2E2E2E2E2E2E2E2E2E2E2
310
E2E2E2E2E2E2E2E2E2E2E2E2E2E2E2E2E2DCE2E2E2E2E2E2E2E2E2E2E2E2E2E2E2E2E2E2E2E2E2DCE2E2E2E2E2E2E2E2E2E2E2E2DCE2E2E2E2E2E2E2E2E2E2E2E2E2E2E2E2E2E2E2E2E2E2E2E2E2E2E2E2E2E2E2E2E2E2E2E2E2E2E2E2E2E2E2E2E2E2E2E2E2BEE2E2E2E2E2E2E2E2E2E2E2E2E2E2E2E2E2E2E2E2E2E2E2E2
310
E2E2E2E2E2E2E2E2E2E2E2E2E2E2E2E2E2E2E2E2E2E2E2E2E2E2E2E2E2E2E2E2BEE2E2E2E2E2BEBEBEBEBEBEBEBEBEBEE2E2BEE2E2E2E2E2E2E2E2E2E2E2E2E2E2E2E2E2E2E2E2E2E2E2E2E2E2E2E2E2E2E2E2E2E2E2E2E2E2E2E2E2E2E2E2E2E2E2E2E2E2E2E2E2E2E2E2E2E2E2E2E2E2E2E2E2E2E2E2E2E2E2E2E2E2E2E2
310
E2E2E2E2E2E2E2E2E2E2E2E2E2E2E2E2E2E2E2DCE2E2E2E2E2E2E2E2E2E2DCE2E2E2E2E2E2E2E2E2E2DCE2E2E2E2E2E2E2E2E2E2E2E2DCE2E2E2E2E2E2E2E2E2E2E2E2E2E2E2E2E2E2E2E2E2E2E2E2E2E2E2E2E2E2E2E2E2E2E2E2E2E2E2E2E2E2E2E2E2E2E2E2E2BEE2E2E2E2E2E2E2E2E2E2E2E2E2E2E2E2E2E2E2E2E2E2
310
E2E2E2E2E2E2E2E2E2E2E2E2E2E2E2E2E2E2E2E2E2E2E2E2E2E2E2E2E2E2E2E2E2E2BEE2E2E2E2E2BEBEBEBEBEBEBEBEBEBEE2E2BEE2E2E2E2E2E2E2E2E2E2E2E2E2E2E2E2E2E2E2E2E2E2E2E2E2E2E2E2E2E2E2E2E2E2E2E2E2E2E2E2E2E2E2E2E2E2E2E2E2E2E2E2E2E2E2E2E2E2E2E2E2E2E2E2E2E2E2E2E2E2E2E2E2E2
310
E2E2E2E2E2E2E2E2E2E2E2E2E2E2E2E2E2E2E2E2E2E2E2E2E2E2E2E2E2E2E2E2E2E2E2E2E2E2E2E2E2E2E2DCE2E2E2E2E2E2E2E2E2E2E2E2DCE2E2E2E2E2E2E2E2E2E2E2E2E2E2E2E2E2E2E2E2E2E2E2E2E2E2E2E2E2E2E2E2E2E2E2E2E2E2E2E2E2E2E2E2E2E2E2E2E2BEE2E2E2E2E2E2E2E2E2E2E2E2E2E2E2E2E2E2E2E2
310
E2E2E2E2E2E2E2E2E2E2E2E2E2E2E2E2E2E2E2E2E2E2E2E2E2E2E2E2E2E2E2E2E2E2E2E2BEE2E2E2E2E2BEBEBEBEBEBEBEBEBEBEE2E2BEE2E2E2E2E2E2E2E2E2E2E2E2E2E2E2E2E2E2E2E2E2E2E2E2E2E2E2E2E2E2E2E2E2E2E2E2E2E2E2E2E2E2E2E2E2E2E2E2E2E2E2E2E2E2E2E2E2E2E2E2E2E2E2E2E2E2E2E2E2E2E2E2
310
E2E2E2E2E2E2E2E2E2E2E2E2E2E2E2E2E2E2E2E2E2E2E2E2E2E2E2E2E2E2E2E2E2E2E2E2E2E2E2E2E2E2E2E2E2DCE2E2E2E2E2E2E2E2E2E2E2E2DCE2E2E2E2E2E2E2E2E2E2E2E2E2E2E2E2E2E2E2E2E2E2E2E2E2E2E2E2E2E2E2E2E2E2E2E2E2E2E2E2E2E2E2E2E2E2E2E2E2BEE2E2E2E2E2E2E2E2E2E2E2E2E2E2E2E2E2E2
310
E2E2E2E2E2E2E2E2E2E2E2E2E2E2E2E2E2E2E2E2E2E2E2E2E2E2E2E2E2E2E2E2E2E2E2E2E2E2BEE2E2E2E2E2BEBEBEBEBEBEBEBEBEBEE2E2BEE2E2E2E2E2E2E2E2E2E2E2E2E2E2E2E2E2E2E2E2E2E2E2E2E2E2E2E2E2E2E2E2E2E2E2E2E2E2E2E2E2E2E2E2E2E2E2E2E2E2E2E2E2E2E2E2E2E2E2E2E2E2E2E2E2E2E2E2E2E2
310
E2E2E2E2E2E2E2E2E2E2E2E2E2E2E2E2E2E2E2E2E2E2E2E2E2E2E2E2E2E2E2E2E2E2E2E2E2E2E2E2E2E2E2E2E2E2E2DCDCE2E2E2E2E2E2E2E2E2E2DCDCE2E2E2E2E2E2E2E2E2E2E2E2E2E2E2E2E2E2E2E2E2E2E2E2E2E2E2E2E2E2E2E2E2E2E2E2E2E2E2E2E2E2E2E2E2E2E2E2E2BEE2E2E2E2E2E2E2E2E2E2E2E2E2E2E2E2
310
E2E2E2E2E2E2E2E2E2E2E2E2E2E2E2E2E2E2E2E2E2E2E2E2E2E2E2E2E2E2E2E2E2E2E2E2E2E2E2E2BEE2E2E2E2E2BEBEBEBEBEBEBEBEBEBEE2E2BEE2E2E2E2E2E2E2E2E2E2E2E2E2E2E2E2E2E2E2E2E2E2E2E2E2E2E2E2E2E2E2E2E2E2E2E2E2E2E2E2E2E2E2E2E2E2E2E2E2E2E2E2E2E2E2E2E2E2E2E2E2E2E2E2E2E2E2E2
310
E2E2E2E2E2E2E2E2E2E2E2E2E2E2E22D2D2D2D2D2D2D2D2D2D2D2D2D2D2DE2E2E2E2E2E2E2E2E2E2E2E2E2E2E2E2E2E2E2DCDCE2E2E2E2E2E2E2E2E2E2E2DCE2E2E2E2E2E2E2E2E2E2E2E2E2E2E2E2E2E2E2E2E2E2E2E2E2E2E2E2E2E2E2E2E2E2E2E2E2E2E2E2E2E2E2E2E2E2E2E2E2BEE2E2E2E2E2E2E2E2E2E2E2E2E2E2
310
E2E2E2E2E2E2E2E2E2E2E2E2E2E2E2E2E2E2E2E2E2E2E2E2E2E2E2E2E2E2E2E2E2E2E2E2E2E2E2E2E2E2BEE2E2E2E2E2BEBEBEBEBEBEBEBEBEBEE2E2BEE2E2E2E2E2E2E2E2E2E2E2E2E2E2E2E2E2E2E2E2E2E2E2E2E2E2E2E2E2E2E2E2E2E2E2E2E2E2E2E2E2E2E2E2E2E2E2E2E2E2E2E2E2E2E22D2D2D2D2D2D2D2D2D2D2D
310
2D2D2D2D2D2D2D2D2D2D2D2DDCDCDC2D2DE2E2E2E2E2E2E2E2E2E2E2E2E2E2E22D2D2D2D2D2D2D2D2D2D2D2D2D2D2D2DDCDCDCDCDCDCDCDCDCDCDCDCDCDCDCDCDCDCDCDC2D2D2D2D2D2D2DE2E2E2E2E2E2E2E2E2E2E2E2E2E2E2E2E2E2E2E2E2E2E2E2E2E2E2E2E2E2E2E2E2E2E2E2E2E2E2BEE2E2E2E2E2E2E2E2E2E2E2E2
310
E2E2E2E2E2E2E2E2E2E2E2E2E2E2E2E2E2E2E2E2E2E2E2E2E2E2E2E2E2E2E2E2E2E2E2E2E2E2E2E2E2E2E2E2BEE2E2E2E2E2BEBEBEBEBEBEBEBEBEBEE2E2BEE2E2E2E2E2E2E2E2E2E2E2E2E2E2E2E2E2E2E2E2E2E2E2E2E2E2E2E2E2E2E2E2E2E2E2E2E2E2E2E2E2E2E2E2E2E2E2E2E2E2E2E2E2E2E2E2E2E2E2E2E2E2E2E2
310
E2E2E2E2E2E2E2E2E2E2E2E2E2E2DCDCE2E2E2E2E2E2E2E2E2E2E2E2E2E2E2E2E2E2E2E2E2E2E2E2E2E2E2E2E2E2E2E2E2E2E2E2E2E2E2E2E2E2E2E2E2E2E2E2E2E2E2E2E2E2E2E2E2E2E2E2E2E2E2E2E2E2E2E2E2E2E2E2E2E2E2E2E2E2E2E2E2E2E2E2E2E2E2E2E2E2E2E2E2E2E2E2E2E2E2E2BEE2E2E2E2E2E2E2E2E2E2
310
E2E2E2E2E2E2E2E2E2E2E2E2E2E2E2E2E2E2E2E2E2E2E2E2E2E2E2E2E2E2E2E2E2E2E2E2E2E2E2E2E2E2E2E2E2E2BEE2E2E2E2E2BEBEBEBEBEBEBEBEBEBEE2E2BEE2E2E2E2E2E2E2E2E2E2E2E2E2E2E2E2E2E2E2E2E2E2E2E2E2E2E2E2E2E2E2E2E2E2E2E2E2E2E2E2E2E2E2E2E2E2E2E2E2E2E2E2E2E2E2E2E2E2E2E2E2E2
310
E2E2E2E2E2E2E2E2E2E2E2E2E2E2DCDCE2E2E2E2E2E2E2E2E2E2E2E2E2E2E2E2E2E2E2E2E2E2E2E2E2E2E2E2E2E2E2E2E2E2E2E2E2E2E2E2E2E2E2E2E2E2E2E2E2E2E2E2E2E2E2E2E2E2E2E2E2E2E2E2E2E2E2E2E2E2E2E2E2E2E2E2E2E2E2E2E2E2E2E2E2E2E2E2E2E2E2E2E2E2E2E2E2E2E2E2E2E2BEE2E2E2E2E2E2E2E2
310
E2E2E2E2E2E2E2E2E2E2E2E2E2E2E2E2E2E2E2E2E2E2E2E2E2E2E2E2E2E2E2E2E2E2E2E2E2E2E2E2E2E2E2E2E2E2E2E2BEE2E2E2E2E2BEBEBEBEBEBEBEBEBEBEE2E2BEE2E2E2E2E2E2E2E2E2E2E2E2E2E2E2E2E2E2E2E2E2E2E2E2E2E2E2E2E2E2E2E2E2E2E2E2E2E2E2E2E2E2E2E2E2E2E2E2E2E2E2E2E2E2E2E2E2E2E2E2
310
E2E2E2E2E2E2E2E2E2E2E2E2E2E2E2DCE2E2E2E2E2E2E2E2E2E2E2E2E2E2E2E2E2E2E2E2E2E2E2E2E2E2E2E2E2E2E2E2E2E2E2E2E2E2E2E2E2E2E2E2E2E2E2E2E2E2E2E2E2E2E2E2E2E2E2E2E2E2E2E2E2E2E2E2E2E2E2E2E2E2E2E2E2E2E2E2E2E2E2E2E2E2E2E2E2E2E2E2E2E2E2E2E2E2E2E2E2E2E2E2BEE2E2E2E2E2E2
310
E2E2E2E2E2E2E2E2E2E2E2E2E2E2E2E2E2E2E2E2E2E2E2E2E2E2E2E2E2E2E2E2E2E2E2E2E2E2E2E2E2E2E2E2E2E2E2E2E2E2BEE2E2E2E2E2BEBEBEBEBEBEBEBEBEBEE2E2BEE2E2E2E2E2E2E2E2E2E2E2E2E2E2E2E2E2E2E2E2E2E2E2E2E2E2E2E2E2E2E2E2E2E2E2E2E2E2E2E2E2E2E2E2E2E2E2E2E2E2E2E2E2E2E2E2E2E2
310
E2E2E2E2E2E2E2E2E2E2E2E2E2E2E2DCDCE2E2E2E2E2E2E2E2E2E2E2E2E2E2E2E2E2E2E2E2E2E2E2E2E2E2E2E2E2E2E2E2E2E2E2E2E2E2E2E2E2E2E2E2E2E2E2E2E2E2E2E2E2E2E2E2E2E2E2E2E2E2E2E2E2E2E2E2E2E2E2E2E2E2E2E2E2E2E2E2E2E2E2E2E2E2E2E2E2E2E2E2E2E2E2E2E2E2E2E2E2E2E2E2E2BEE2E2E2E2
310
E2E2E2E2E2E2E2E2E2E2E2E2E2E2E2E2E2E2E2E2E2E2E2E2E2E2E2E2E2E2E2E2E2E2E2E2E2E2E2E2E2E2E2E2E2E2E2E2E2E2E2E2BEE2E2E2E2E2BEBEBEBEBEBEBEBEBEBEE2E2BEE2E2E2E2E2E2E2E2E2E2E2E2E2E2E2E2E2E2E2E2E2E2E2E2E2E2E2E2E2E2E2E2E2E2E2E2E2E2E2E2E2E2E2E2E2E2E2E2E2E2E2E2E2E2E2E2
310
E2E2E2E2E2E2E2E2E2E2E2E2E2E2E2E2DCE2E2E2E2E2E2E2E2E2E2E2E2E2E2E2E2E2E2E2E2E2E2E2E2E2E2E2E2E2E2E2E2E2E2E2E2E2E2E2E2E2E2E2E2E2E2E2E2E2E2E2E2E2E2E2E2E2E2E2E2E2E2E2E2E2E2E2E2E2E2E2E2E2E2E2E2E2E2E2E2E2E2E2E2E2E2E2E2E2E2E2E2E2E2E2E2E2E2E2E2E2E2E2E2E2E2E2BEE2E2
310
E2E2E2E2E2E2E2E2E2E2E2E2E2E2E2E2E2E2E2E2E2E2E2E2E2E2E2E2E2E2E2E2E2E2E2E2E2E2E2E2E2E2E2E2E2E2E2E2E2E2E2E2E2E2BEE2E2E2E2E2BEBEBEBEBEBEBEBEBEBEE2E2BEE2E2E2E2E2E2E2E2E2E2E2E2E2E2E2E2E2E2E2E2E2E2E2E2E2E2E2E2E2E2E2E2E2E2E2E2E2E2E2E2E2E2DCDCDCDCDCDCDCDCE2E2DCDC
310
DCDCDCDCDCDCDCE2E2E2E2E2E2E2E2E2DCDCE2E2E2E2E2E2E2E2E2E2E2E2E2E2E2E2E2E2E2E2E2E2E2E2E2E2E2E2E2E2E2E2E2E2E2E2E2E2E2E2E2E2E2E2E2E2E2E2E2E2E2E2E2E2E2E2E2E2E2E2E2E2E2E2E2E2E2E2E2E2E2E2E2E2E2E2E2E2E2E2E2E2E2E2E2E2E2E2E2E2E2E2E2E2E2E2E2E2E2E2E2E2E2E2E2E2E2E2BE
310
E2E2E2E2E2E2E2E2E2E2E2E2E2E2E2E2E2E2E2E2E2E2E2E2E2E2E2E2E2E2E2E2E2E2E2E2E2E2E2E2E2E2E2E2E2E2E2E2E2E2E2E2E2E2E2E2BEE2E2E2E2E2BEBEBEBEBEBEBEBEBEBEE2E2BEE2E2E2E2E2E2E2E2E2E2E2E2E2E2E2E2E2E2E2E2E2E2E2E2E2E2E2E2E2E2E2E2E2E2E2E2E2E2E2E2E2E2DCDCDCDCDCDCDCDCE2E2
310
DCDCDCDCDCDCDCDCE2E2DCDCDCDCDCDCDCDCE2E2E2E2E2E2E2E2E2E2E2E2E2E2E2E2E2E2E2E2E2E2E2E2E2E2E2E2E2E2E2E2E2E2E2E2E2E2E2E2E2E2E2E2E2E2E2E2E2E2E2E2E2E2E2E2E2E2E2E2E2E2E2E2E2E2E2E2E2E2E2E2E2E2E2E2E2E2E2E2E2E2E2E2E2E2E2E2E2E2E2E2E2E2E2E2E2E2E2E2E2E2E2E2E2E2E2E2E2
310
E2BEE2E2E2E2E2E2E2E2E2E2E2E2E2E2E2E2E2E2E2E2E2E2E2E2E2E2E2E2E2E2E2E2E2E2E2E2E2E2E2E2E2E2E2E2E2E2E2E2E2E2E2E2E2E2E2E2BEE2E2E2E2E2BEBEBEBEBEBEBEBEBEBEE2E2BEE2E2E2E2E2E2E2E2E2E2E2E2E2E2E2E2E2E2E2E2E2E2E2E2E2E2E2E2E2E2E2E2E2E2E2E2E2E2E2E2E2E2DCDCDCDCDCDCDCDC
310
E2E2DCDCDCE2DCDCE2DCDCE2E2E2E2E2E2E2E2E2E2E2E2E2E2E2E2E2E2E2E2E2E2E2E2E2E2E2E2E2E2E2E2E2E2E2E2E2E2E2E2E2E2E2E2E2E2E2E2E2E2E2E2E2E2E2E2E2E2E2E2E2E2E2E2E2E2E2E2E2E2E2E2E2E2E2E2E2E2E2E2E2E2E2E2E2E2E2E2E2E2E2E2E2E2E2E2E2E2E2E2E2E2E2E2E2E2E2E2E2E2E2E2E2E2E2E2
310
E2E2E2BEE2E2E2E2E2E2E2E2E2E2E2E2E2E2E2E2E2E2E2E2E2E2E2E2E2E2E2E2E2E2E2E2E2E2E2E2E2E2E2E2E2E2E2E2E2E2E2E2E2E2E2E2E2E2E2E2BEE2E2E2E2E2BEBEBEBEBEBEBEBEBEBEE2E2BEE2E2E2E2E2E2E2E2E2E2E2E2E2E2E2E2E2E2E2E2E2E2E2E2E2E2E2E2E2E2E2E2E2E2E2E2E2E2E2E2E2E2E2E2E2E2E2E2
310
E2E2E2E2E2E2E2E2E2E2E2E2E2E2E2E2E2E2E2E2E2E2E2E2E2E2E2E2E2E2E2E2E2E2E2E2E2E2E2E2E2E2E2E2E2E2E2E2E2E2E2E2E2E2E2E2E2E2E2E2E2E2E2E2E2E2E2E2E2E2E2E2E2E2E2E2E2E2E2E2E2E2E2E2E2E2E2E2E2E2E2E2E2E2E2E2E2E2E2E2E2E2E2E2E2E2E2E2E2E2E2E2E2E2E2E2E2E2E2E2E2E2E2E2E2E2E2
310
E2E2E2E2E2BEE2E2E2E2E2E2E2E2E2E2E2E2E2E2E2E2E2E2E2E2E2E2E2E2E2E2E2E2E2E2E2E2E2E2E2E2E2E2E2E2E2E2E2E2E2E2E2E2E2E2E2E2E2E2E2E2BEE2E2E2E2E2BEBEBEBEBEBEBEBEBEBEE2E2BEE2E2E2E2E2E2E2E2E2E2E2E2E2E2E2E2E2E2E2E2E2E2E2E2E2E2E2E2E2E2E2E2E2E2E2E2E2E2E2E2E2E2E2E2E2E2
310
E2E2E2E2E2E2E2E2E2E2E2E2E2E2E2E2E2E2E2E2E2E2E2E2E2E2E2E2E2E2E2E2E2E2E2E2E2E2E2E2E2E2E2E2E2E2E2E2E2E2E2E2E2E2E2E2E2E2E2E2E2E2E2E2E2E2E2E2E2E2E2E2E2E2E2E2E2E2E2E2E2E2E2E2E2E2E2E2E2E2E2E2E2E2E2E2E2E2E2E2E2E2E2E2E2E2E2E2E2E2E2E2E2E2E2E2E2E2E2E2E2E2E2E2E2E2E2
310
E2E2E2E2E2E2E2BEE2E2E2E2E2E2E2E2E2E2E2E2E2E2E2E2E2E2E2E2E2E2E2E2E2E2E2E2E2E2E2E2E2E2E2E2E2E2E2E2E2E2E2E2E2E2E2E2E2E2E2E2E2E2E2E2BEE2E2E2E2E2BEBEBEBEBEBEBEBEBEBEE2E2BEE2E2E2E2E2E2E2E2E2E2E2E2E2E2E2E2E2E2E2E2E2E2E2E2E2E2E2E2E2E2E2E2E2E2E2E2E2E2E2E2E2E2E2E2
310
E2E2E2E2E2E2E2E2E2E2E2E2E2E2E2E2E2E2E2E2E2E2E2E2E2E2E2E2E2E2E2E2E2E2E2E2E2E2E2E2E2E2E2E2E2E2E2E2E2E2E2E2E2E2E2E2E2E2E2E2E2E2E2E2E2E2E2E2E2E2E2E2E2E2E2E2E2E2E2E2E2E2E2E2E2E2E2E2E2E2E2E2E2E2E2E2E2E2E2E2E2E2E2E2E2E2E2E2E2E2E2E2E2E2E2E2E2E2E2E2E2E2E2E2E2E2E2
310
E2E2E2E2E2E2E2E2E2BEE2E2E2E2E2E2E2E2E2E2E2E2E2E2E2E2E2E2E2E2E2E2E2E2E2E2E2E2E2E2E2E2E2E2E2E2E2E2E2E2E2E2E2E2E2E2E2E2E2E2E2E2E2E2E2E2BEE2E2E2E2E2BEBEBEBEBEBEBEBEBEBEE2E2BEE2E2E2E2E2E2E2E2E2E2E2E2E2E2E2E2E2E2E2E2E2E2E2E2E2E2E2E2E2E2E2E2E2E2E2E2E2E2E2E2E2E2
310
E2E2E2E2E2E2E2E2E2E2E2E2E2E2E2E2E2E2E2E2E2E2E2E2E2E2E2E2E2E2E2E2E2E2E2E2E2E2E2E2E2E2E2E2E2E2E2E2E2E2E2E2E2E2E2E2E2E2E2E2E2E2E2E2E2E2E2E2E2E2E2E2E2E2E2E2E2E2E2E2E2E2E2E2E2E2E2E2E2E2E2E2E2E2E2E2E2E2E2E2E2E2E2E2E2E2E2E2E2E2E2E2E2E2E2E2E2E2E2E2E2E2E2E2E2E2E2
310
E2E2E2E2E2E2E2E2E2E2E2BEE2E2E2E2E2E2E2E2E2E2E2E2E2E2E2E2E2E2E2E2E2E2E2E2E2E2E2E2E2E2E2E2E2E2E2E2E2E2E2E2E2E2E2E2E2E2E2E2E2E2E2E2E2E2E2E2BEE2E2E2E2E2BEBEBEBEBEBEBEBEBEBEE2E2BEE2E2E2E2E2E2E2E2E2E2E2E2E2E2E2E2E2E2E2E2E2E2E2E2E2E2E2E2E2E2E2E2E2E2E2E2E2E2E2E2
310
E2E2E2E2E2E2E2E2E2E2E2E2E2E2E2E2E2E2E2E2E2E2E2E2E2E2E2E2E2E2E2E2E2E2E2E2E2E2E2E2E2E2E2E2E2E2E2E2E2E2E2E2E2E2E2E2E2E2E2E2E2E2E2E2E2E2E2E2E2E2E2E2E2E2E2E2E2E2E2E2E2E2E2E2E2E2E2E2E2E2E2E2E2E2E2E2E2E2E2E2E2E2E2E2E2E2E2E2E2E2E2E2E2E2E2E2E2E2E2E2E2E2E2E2E2E2E2
310
E2E2E2E2E2E2E2E2E2E2E2E2E2BEE2E2E2E2E2E2E2E2E2E2E2E2E2E2E2E2E2E2E2E2E2E2E2E2E2E2E2E2E2E2E2E2E2E2E2E2E2E2E2E2E2E2E2E2E2E2E2E2E2E2E2E2E2E2E2E2BEE2E2E2E2E2BEBEBEBEBEBEBEBEBEBEE2E2BEE2E2E2E2E2E2E2E2E2E2E2E2E2E2E2E2E2E2E2E2E2E2E2E2E2E2E2E2E2E2E2E2E2E2E2E2E2E2
310
E2E2E2E2E2E2E2E2E2E2E2E2E2E2E2E2E2E2E2E2E2E2E2E2E2E2E2E2E2E2E2E2E2E2E2E2E2E2E2E2E2E2E2E2E2E2E2E2E2E2E2E2E2E2E2E2E2E2E2E2E2E2E2E2E2E2E2E2E2E2E2E2E2E2E2E2E2E2E2E2E2E2E2E2E2E2E2E2E2E2E2E2E2E2E2E2E2E2E2E2E2E2E2E2E2E2E2E2E2E2E2E2E2E2E2E2E2E2E2E2E2E2E2E2E2E2E2
310
E2E2E2E2E2E2E2E2E2E2E2E2E2E2E2BEE2E2E2E2E2E2E2E2E2E2E2E2E2E2E2E2E2E2E2E2E2E2E2E2E2E2E2E2E2E2E2E2E2E2E2E2E2E2E2E2E2E2E2E2E2E2E2E2E2E2E2E2E2E2E2E2BEE2E2E2E2E2BEBEBEBEBEBEBEBEBEBEE2E2BEE2E2E2E2E2E2E2E2E2E2E2E2E2E2E2E2E2E2E2E2E2E2E2E2E2E2E2E2E2E2E2E2E2E2E2E2
310
E2E2E2E2E2E2E2E2E2E2E2E2E2E2E2E2E2E2E2E2E2E2E2E2E2E2E2E2E2E2E2E2E2E2E2E2E2E2E2E2E2E2E2E2E2E2E2E2E2E2E2E2E2E2E2E2E2E2E2E2E2E2E2E2E2E2E2E2E2E2E2E2E2E2E2E2E2E2E2E2E2E2E2E2E2E2E2E2E2E2E2E2E2E2E2E2E2E2E2E2E2E2E2E2E2E2E2E2E2E2E2E2E2E2E2E2E2E2E2E2E2E2E2E2E2E2E2
310
E2E2E2E2E2E2E2E2E2E2E2E2E2E2E2E2E2BEE2E2E2E2E2E2E2E2E2E2E2E2E2E2E2E2E2E2E2E2E2E2E2E2E2E2E2E2E2E2E2E2E2E2E2E2E2E2E2E2E2E2E2E2E2E2E2E2E2E2E2E2E2E2E2E2BEE2E2E2E2E2BEBEBEBEBEBEBEBEBEBEE2E2BEE2E2E2E2E2E2E2E2E2E2E2E2E2E2E2E2E2E2E2E2E2E2E2E2E2E2E2E2E2E2E2E2E2E2
310
E2E2E2E2E2E2E2E2E2E2E2E2E2E2E2E2E2E2E2E2E2E2E2E2E2E2E2E2E2E2E2E2E2E2E2E2E2E2E2E2E2E2E2E2E2E2E2E2E2E2E2E2E2E2E2E2E2E2E2E2E2E2E2E2E2E2E2E2E2E2E2E2E2E2E2E2E2E2E2E2E2E2E2E2E2E2E2E2E2E2E2E2E2E2E2E2E2E2E2E2E2E2E2E2E2E2E2E2E2E2E2E2E2E2E2E2E2E2E2E2E2E2E2E2E2E2E2
310
E2E2E2E2E2E2E2E2E2E2E2E2E2E2E2E2E2E2E2BEE2E2E2E2E2E2E2E2E2E2E2E2E2E2E2E2E2E2E2E2E2E2E2E2E2E2E2E2E2E2E2E2E2E2E2E2E2E2E2E2E2E2E2E2E2E2E2E2E2E2E2E2E2E2E2E2BEE2E2E2E2E2BEBEBEBEBEBEBEBEBEBEE2E2BEE2E2E2E2E2E2E2E2E2E2E2E2E2E2E2E2E2E2E2E2E2E2E2E2E2E2E2E2E2E2E2E2
310
E2E2E2E2E2E2E2E2E2E2E2E2E2E2E2E2E2E2E2E2E2E2E2E2E2E2E2E2E2E2E2E2E2E2E2E2E2E2E2E2E2E2E2E2E2E2E2E2E2E2E2E2E2E2E2E2E2E2E2E2E2E2E2E2E2E2E2E2E2E2E2E2E2E2E2E2E2E2E2E2E2E2E2E2E2E2E2E2E2E2E2E2E2E2E2E2E2E2E2E2E2E2E2E2E2E2E2E2E2E2E2E2E2E2E2E2E2E2E2E2E2E2E2E2E2E2E2
310
E2E2E2E2E2E2E2E2E2E2E2E2E2E2E2E2E2E2E2E2E2BEE2E2E2E2E2E2E2E2E2E2E2E2E2E2E2E2E2E2E2E2E2E2E2E2E2E2E2E2E2E2E2E2E2E2E2E2E2E2E2E2E2E2E2E2E2E2E2E2E2E2E2E2E2E2E2E2BEE2E2E2E2E2BEBEBEBEBEBEBEBEBEBEE2E2BEE2E2E2E2E2E2E2E2E2E2E2E2E2E2E2E2E2E2E2E2E2E2E2E2E2E2E2E2E2E2
310
E2E2E2E2E2E2E2E2E2E2E2E2E2E2E2E2E2E2E2E2E2E2E2E2E2E2E2E2E2E2E2E2E2E2E2E2E2E2E2E2E2E2E2E2E2E2E2E2E2E2E2E2E2E2E2E2E2E2E2E2E2E2E2E2E2E2E2E2E2E2E2E2E2E2E2E2E2E2E2E2E2E2E2E2E2E2E2E2E2E2E2E2E2E2E2E2E2E2E2E2E2E2E2E2E2E2E2E2E2E2E2E2E2E2E2E2E2E2E2E2E2E2E2E2E2E2E2
310
E2E2E2E2E2E2E2E2E2E2E2E2E2E2E2E2E2E2E2E2E2E2E2BEE2E2E2E2E2E2E2E2E2E2E2E2E2E2E2E2E2E2E2E2E2E2E2E2E2E2E2E2E2E2E2E2E2E2E2E2E2E2E2E2E2E2E2E2E2E2E2E2E2E2E2E2E2E2E2E2BEE2E2E2E2E2BEBEBEBEBEBEBEBEBEBEE2E2BEE2E2E2E2E2E2E2E2E2E2E2E2E2E2E2E2E2E2E2E2E2E2E2E2E2E2E2E2
310
E2E2E2E2E2E2E2E2E2E2E2E2E2E2E2E2E2E2E2E2E2E2E2E2E2E2E2E2E2E2E2E2E2E2E2E2E2E2E2E2E2E2E2E2E2E2E2E2E2E2E2E2E2E2E2E2E2E2E2E2E2E2E2E2E2E2E2E2E2E2E2E2E2E2E2E2E2E2E2E2E2E2E2E2E2E2E2E2E2E2E2E2E2E2E2E2E2E2E2E2E2E2E2E2E2E2E2E2E2E2E2E2E2E2E2E2E2E2E2E2E2E2E2E2E2E2E2
310
E2E2E2E2E2E2E2E2E2E2E2E2E2E2E2E2E2E2E2E2E2E2E2E2E2BEE2E2E2E2E2E2E2E2E2E2E2E2E2E2E2E2E2E2E2E2E2E2E2E2E2E2E2E2E2E2E2E2E2E2E2E2E2E2E2E2E2E2E2E2E2E2E2E2E2E2E2E2E2E2E2E2BEE2E2E2E2E2BEBEBEBEBEBEBEBEBEBEE2E2BEE2E2E2E2E2E2E2E2E2E2E2E2E2E2E2E2E2E2E2E2E2E2E2E2E2E2
310
E2E2E2E2E2E2E2E2E2E2E2E2E2E2E2E2E2E2E2E2E2E2E2E2E2E2E2E2E2E2E2E2E2E2E2E2E2E2E2E2E2E2E2E2E2E2E2E2E2E2E2E2E2E2E2E2E2E2E2E2E2E2E2E2E2E2E2E2E2E2E2E2E2E2E2E2E2E2E2E2E2E2E2E2E2E2E2E2E2E2E2E2E2E2E2E2E2E2E2E2E2E2E2E2E2E2E2E2E2E2E2E2E2E2E2E2E2E2E2E2E2E2E2E2E2E2E2
310
E2E2E2E2E2E2E2E2E2E2E2E2E2E2E2E2E2E2E2E2E2E2E2E2E2E2E2BEE2E2E2E2E2E2E2E2E2E2E2E2E2E2E2E2E2E2E2E2E2E2E2E2E2E2E2E2E2E2E2E2E2E2E2E2E2E2E2E2E2E2E2E2E2E2E2E2E2E2E2E2E2E2E2E2BEE2E2E2E2E2BEBEBEBEBEBEBEBEBEBEE2E2BEE2E2E2E2E2E2E2E2E2E2E2E2E2E2E2E2E2E2E2E2E2E2E2E2
310
E2E2E2E2E2E2E2E2E2E2E2E2E2E2E2E2E2E2E2E2E2E2E2E2E2E2E2E2E2E2E2E2E2E2E2E2E2E2E2E2E2E2E2E2E2E2E2E2E2E2E2E2E2E2E2E2E2E2E2E2E2E2E2E2E2E2E2E2E2E2E2E2E2E2E2E2E2E2E2E2E2E2E2E2E2E2E2E2E2E2E2E2E2E2E2E2E2E2E2E2E2E2E2E2E2E2E2E2E2E2E2E2E2E2E2E2E2E2E2E2E2E2E2E2E2E2E2
310
E2E2E2E2E2E2E2E2E2E2E2E2E2E2E2E2E2E2E2E2E2E2E2E2E2E2E2E2E2BEE2E2E2E2E2E2E2E2E2E2E2E2E2E2E2E2E2E2E2E2E2E2E2E2E2E2E2E2E2E2E2E2E2E2E2E2E2E2E2E2E2E2E2E2E2E2E2E2E2E2E2E2E2E2E2E2BEE2E2E2E2E2BEBEBEBEBEBEBEBEBEBEE2E2BEE2E2E2E2E2E2E2E2E2E2E2E2E2E2E2E2E2E2E2E2E2E2
310
E2E2E2E2E2E2E2E2E2E2E2E2E2E2E2E2E2E2E2E2E2E2E2E2E2E2E2E2E2E2E2E2E2E2E2E2E2E2E2E2E2E2E2E2E2E2E2E2E2E2E2E2E2E2E2E2E2E2E2E2E2E2E2E2E2E2E2E2E2E2E2E2E2E2E2E2E2E2E2E2E2E2E2E2E2E2E2E2E2E2E2E2E2E2E2E2E2E2E2E2E2E2E2E2E2E2E2E2E2E2E2E2E2E2E2E2E2E2E2E2E2E2E2E2E2E2E2
310
E2E2E2E2E2E2E2E2E2E2E2E2E2E2E2E2E2E2E2E2E2E2E2E2E2E2E2E2E2E2E2BEE2E2E2E2E2E2E2E2E2E2E2E2E2E2E2E2E2E2E2E2E2E2E2E2E2E2E2E2E2E2E2E2E2E2E2E2E2E2E2E2E2E2E2E2E2E2E2E2E2E2E2E2E2E2E2E2BEE2E2E2E2E2BEBEBEBEBEBEBEBEBEBEE2E2BEE2E2E2E2E2E2E2E2E2E2E2E2E2E2E2E2E2E2E2E2
310
E2E2E2E2E2E2E2E2E2E2E2E2E2E2E2E2E2E2E2E2E2E2E2E2E2E2E2E2E2E2E2E2E2E2E2E2E2E2E2E2E2E2E2E2E2E2E2E2E2E2E2E2E2E2E2E2E2E2E2E2E2E2E2E2E2E2E2E2E2E2E2E2E2E2E2E2E2E2E2E2E2E2E2E2E2E2E2E2E2E2E2E2E2E2E2E2E2E2E2E2E2E2E2E2E2E2E2E2E2E2E2E2E2E2E2E2E2E2E2E2E2E2E2E2E2E2E2
310
E2E2E2E2E2E2E2E2E2E2E2E2E2E2E2E2E2E2E2E2E2E2E2E2E2E2E2E2E2E2E2E2E2BEE2E2E2E2E2E2E2E2E2E2E2E2E2E2E2E2E2E2E2E2E2E2E2E2E2E2E2E2E2E2E2E2E2E2E2E2E2E2E2E2E2E2E2E2E2E2E2E2E2E2E2E2E2E2E2E2BEE2E2E2E2E2BEBEBEBEBEBEBEBEBEBEE2E2BEE2E2E2E2E2E2E2E2E2E2E2E2E2E2E2E2E2E2
310
E2E2E2E2E2E2E2E2E2E2E2E2E2E2E2E2E2E2E2E2E2E2E2E2E2E2E2E2E2E2E2E2E2E2E2E2E2E2E2E2E2E2E2E2E2E2E2E2E2E2E2E2E2E2E2E2E2E2E2E2E2E2E2E2E2E2E2E2E2E2E2E2E2E2E2E2E2E2E2E2E2E2E2E2E2E2E2E2E2E2E2E2E2E2E2E2E2E2E2E2E2E2E2E2E2E2E2E2E2E2E2E2E2E2E2E2E2E2E2E2E2E2E2E2E2E2E2
310
E2E2E2E2E2E2E2E2E2E2E2E2E2E2E2E2E2E2E2E2E2E2E2E2E2E2E2E2E2E2E2E2E2E2E2BEE2E2E2E2E2E2E2E2E2E2E2E2E2E2E2E2E2E2E2E2E2E2E2E2E2E2E2E2E2E2E2E2E2E2E2E2E2E2E2E2E2E2E2E2E2E2E2E2E2E2E2E2E2E2E2E2BEE2E2E2E2E2BEBEBEBEBEBEBEBEBEBEE2E2BEE2E2E2E2E2E2E2E2E2E2E2E2E2E2E2E2
310
E2E2E2E2E2E2E2E2E2E2E2E2E2E2E2E2E2E2E2E2E2E2E2E2E2E2E2E2E2E2E2E2E2E2E2E2E2E2E2E2E2E2E2E2E2E2E2E2E2E2E2E2E2E2E2E2E2E2E2E2E2E2E2E2E2E2E2E2E2E2E2E2E2E2E2E2E2E2E2E2E2E2E2E2E2E2E2E2E2E2E2E2E2E2E2E2E2E2E2E2E2E2E2E2E2E2E2E2E2E2E2E2E2E2E2E2E2E2E2E2E2E2E2E2E2E2E2
310
E2E2E2E2E2E2E2E2E2E2E2E2E2E2E2E2E2E2E2E2E2E2E2E2E2E2E2E2E2E2E2E2E2E2E2E2E2BEE2E2E2E2E2E2E2E2E2E2E2E2E2E2E2E2E2E2E2E2E2E2E2E2E2E2E2E2E2E2E2E2E2E2E2E2E2E2E2E2E2E2E2E2E2E2E2E2E2E2E2E2E2E2E2E2BEE2E2E2E2E2BEBEBEBEE2E2BEBEBEBEE2E2BEE2E2E2E2E2E2E2E2E2E2E2E2E2E2
310
E2E2E2E2E2E2E2E2E2E2E2E2E2E2E2E2E2E2E2E2E2E2E2E2E2E2E2E2E2E2E2E2E2E2E2E2E2E2E2E2E2E2E2E2E2E2E2E2E2E2E2E2E2E2E2E2E2E2E2E2E2E2E2E2E2E2E2E2E2E2E2E2E2E2E2E2E2E2E2E2E2E2E2E2E2E2E2E2E2E2E2E2E2E2E2E2E2E2E2E2E2E2E2E2E2E2E2E2E2E2E2E2E2E2E2E2E2E2E2E2E2E2E2E2E2E2E2
310
E2E2E2E2E2E2E2E2E2E2E2E2E2E2E2E2E2E2E2E2E2E2E2E2E2E2E2E2E2E2E2E2E2E2E2E2E2E2E2BEE2E2E2E2E2E2E2E2E2E2E2E2E2E2E2E2E2E2E2E2E2E2E2E2E2E2E2E2E2E2E2E2E2E2E2E2E2E2E2E2E2E2E2E2E2E2E2E2E2E2E2E2E2E2E2E2BEE2E2E2E2E2BEBEBEBEE2E2BEBEE2E2E2E2BEE2E2E2E2E2E2E2E2E2E2E2E2
310
E2E2E2E2E2E2E2E2E2E2E2E2E2E2E2E2E2E2E2E2E2E2E2E2E2E2E2E2E2E2E2E2E2E2E2E2E2E2E2E2E2E2E2E2E2E2E2E2E2E2E2E2E2E2E2E2E2E2E2E2E2E2E2E2E2E2E2E2E2E2E2E2E2E2E2E2E2E2E2E2E2E2E2E2E2E2E2E2E2E2E2E2E2E2E2E2E2E2E2E2E2E2E2E2E2E2E2E2E2E2E2E2E2E2E2E2E2E2E2E2E2E2E2E2E2E2E2
310
E2E2E2E2E2E2E2E2E2E2E2E2E2E2E2E2E2E2E2E2E2E2E2E2E2E2E2E2E2E2E2E2E2E2E2E2E2E2E2E2E2BEE2E2E2E2E2E2E2E2E2E2E2E2E2E2E2E2E2E2E2E2E2E2E2E2E2E2E2E2E2E2E2E2E2E2E2E2E2E2E2E2E2E2E2E2E2E2E2E2E2E2E2E2E2E2E2E2BEE2E2E2E2E2E2E2BEBEE2E2E2E2E2E2E2E2BEE2E2E2E2E2E2E2E2E2E2
310
E2E2E2E2E2E2E2E2E2E2E2E2E2E2E2E2E2E2E2E2E2E2E2E2E2E2E2E2E2E2E2E2E2E2E2E2E2E2E2E2E2E2E2E2E2E2E2E2E2E2E2E2E2E2E2E2E2E2E2E2E2E2E2E2E2E2E2E2E2E2E2E2E2E2E2E2E2E2E2E2E2E2E2E2E2E2E2E2E2E2E2E2E2E2E2E2E2E2E2E2E2E2E2E2E2E2E2E2E2E2E2E2E2E2E2E2E2E2E2E2E2E2E2E2E2E2E2
310
E2E2E2E2E2E2E2E2E2E2E2E2E2E2E2E2E2E2E2E2E2E2E2E2E2E2E2E2E2E2E2E2E2E2E2E2E2E2E2E2E2E2E2BEE2E2E2E2E2E2E2E2E2E2E2E2E2E2E2E2E2E2E2E2E2E2E2E2E2E2E2E2E2E2E2E2E2E2E2E2E2E2E2E2E2E2E2E2E2E2E2E2E2E2E2E2E2E2E2E2BEE2E2E2E2E2E2E2E2E2E2E2E2E2E2E2E2E2BEE2E2E2E2E2E2E2E2
310
E2E2E2E2E2E2E2E2E2E2E2E2E2E2E2E2E2E2E2E2E2E2E2E2E2E2E2E2E2E2E2E2E2E2E2E2E2E2E2E2E2E2E2E2E2E2E2E2E2E2E2E2E2E2E2E2E2E2E2E2E2E2E2E2E2E2E2E2E2E2E2E2E2E2E2E2E2E2E2E2E2E2E2E2E2E2E2E2E2E2E2E2E2E2E2E2E2E2E2E2E2E2E2E2E2E2E2E2E2E2E2E2E2E2E2E2E2E2E2E2E2E2E2E2E2E2E2
310
E2E2E2E2E2E2E2E2E2E2E2E2E2E2E2E2E2E2E2E2E2E2E2E2E2E2E2E2E2E2E2E2E2E2E2E2E2E2E2E2E2E2E2E2E2BEE2E2E2E2E2E2E2E2E2E2E2E2E2E2E2E2E2E2E2E2E2E2E2E2E2E2E2E2E2E2E2E2E2E2E2E2E2E2E2E2E2E2E2E2E2E2E2E2E2E2E2E2E2E2E2E2BEE2E2E2E2E2E2E2E2E2E2E2E2E2E2E2E2E2BEE2E2E2E2E2E2
310
E2E2E2E2E2E2E2E2E2E2E2E2E2E2E2E2E2E2E2E2E2E2E2E2E2E2E2E2E2E2E2E2E2E2E2E2E2E2E2E2E2E2E2E2E2E2E2E2E2E2E2E2E2E2E2E2E2E2E2E2E2E2E2E2E2E2E2E2E2E2E2E2E2E2E2E2E2E2E2E2E2E2E2E2E2E2E2E2E2E2E2E2E2E2E2E2E2E2E2E2E2E2E2E2E2E2E2E2E2E2E2E2E2E2E2E2E2E2E2E2E2E2E2E2E2E2E2
310
E2E2E2E2E2E2E2E2E2E2E2E2E2E2E2E2E2E2E2E2E2E2E2E2E2E2E2E2E2E2E2E2E2E2E2E2E2E2E2E2E2E2E2E2E2E2E2BEE2E2E2E2E2E2E2E2E2E2E2E2E2E2E2E2E2E2E2E2E2E2E2E2E2E2E2E2E2E2E2E2E2E2E2E2E2E2E2E2E2E2E2E2E2E2E2E2E2E2E2E2E2E2E2E2BEE2E2E2E2E2E2E2E2E2E2E2E2E2E2E2E2E2BEE2E2E2E2
310
E2E2E2E2E2E2E2E2E2E2E2E2E2E2E2E2E2E2E2E2E2E2E2E2E2E2E2E2E2E2E2E2E2E2E2E2E2E2E2E2E2E2E2E2E2E2E2E2E2E2E2E2E2E2E2E2E2E2E2E2E2E2E2E2E2E2E2E2E2E2E2E2E2E2E2E2E2E2E2E2E2E2E2E2E2E2E2E2E2E2E2E2E2E2E2E2E2E2E2E2E2E2E2E2E2E2E2E2E2E2E2E2E2E2E2E2E2E2E2E2E2E2E2E2E2E2E2
310
E2E2E2E2E2E2E2E2E2E2E2E2E2E2E2E2E2E2E2E2E2E2E2E2E2E2E2E2E2E2E2E2E2E2E2E2E2E2E2E2E2E2E2E2E2E2E2E2E2BEE2E2E2E2E2E2E2E2E2E2E2E2E2E2E2E2E2E2E2E2E2E2E2E2E2E2E2E2E2E2E2E2E2E2E2E2E2E2E2E2E2E2E2E2E2E2E2E2E2E2E2E2E2E2E2E2BEBEBEBEBEBEBEBEBEBEBEBEBEBEBEBEBEBEBEBEBE
310
BEBEBEBEBEBEBEBEBEBEBEBEBEBEBEBEBEBEBEBEBEBEBEBEBEBEBEBEBEBEBEBEBEBEBEBEBEBEBEBEBEBEBEBEBEBEBEBEBEBEBEBEBEBEBEBEBEBEBEBEBEBEBEBEBEBEBEBEBEBEBEBEBEBEBEBEBEBEBEBEBEBEBEBEBEBEBEBEBEBEBEBEBEBEBEBEBEBEBEBEBEBEBEBEBEBEBEBEBEBEBEBEBEBEBEBEBEBEBEBEBEBEBEBEBEBEBE
310
BEBEBEBEBEBEBEBEBEBEBEBEBEBEBEBEBEBEBEBEBEBEBEBEBEBEBEBEBEBEBEBEBEBEBEBEBEBEBEBEBEBEBEBEBEBEBEBEBEBEBEBEE2E2E2E2E2E2E2E2E2E2E2E2E2E2E2E2E2E2E2E2E2E2E2E2E2E2E2E2
  0
XRECORD
  5
D8F1
102
{ACAD_REACTORS
330
D8F0
102
}
330
D8F0
100
AcDbXrecord
280
     1
102
MATERIAL
148
0.0
149
0.0
149
0.0
 93
        0
 94
       63
282
     0
 72
     1
 77
     1
171
     1
175
     1
179
     1
273
     0
  0
XRECORD
  5
D8EF
102
{ACAD_REACTORS
330
D8EE
102
}
330
D8EE
100
AcDbXrecord
280
     1
102
MATERIAL
148
0.0
149
0.0
149
0.0
 93
        0
 94
       63
282
     0
 72
     1
 77
     1
171
     1
175
     1
179
     1
273
     0
  0
XRECORD
  5
D8F2
102
{ACAD_REACTORS
330
110
102
}
330
110
100
AcDbXrecord
280
     1
102
MATERIAL
148
0.0
149
0.0
149
0.0
 93
        0
 94
       63
282
     0
 72
     1
 77
     1
171
     1
175
     1
179
     1
273
     0
  0
XRECORD
  5
112
102
{ACAD_REACTORS
330
110
102
}
330
110
100
AcDbXrecord
280
     1
270
     1
271
     1
  0
XRECORD
  5
111
102
{ACAD_REACTORS
330
110
102
}
330
110
100
AcDbXrecord
280
     1
270
     1
271
     1
  0
XRECORD
  5
113
102
{ACAD_REACTORS
330
110
102
}
330
110
100
AcDbXrecord
280
     1
270
     1
271
     1
  0
XRECORD
  5
114
102
{ACAD_REACTORS
330
110
102
}
330
110
100
AcDbXrecord
280
     1
270
     1
271
     1
  0
CELLSTYLEMAP
  5
D8EB
102
{ACAD_REACTORS
330
D8A9
102
}
330
D8A9
100
AcDbCellStyleMap
 90
        3
300
CELLSTYLE
  1
TABLEFORMAT_BEGIN
 90
        5
170
     1
 91
        0
 92
    32768
 62
   257
 93
        1
300
CONTENTFORMAT
  1
CONTENTFORMAT_BEGIN
 90
        0
 91
        0
 92
      512
 93
        0
300

 40
0.0
140
1.0
 94
        5
 62
     0
340
180
144
0.5
309
CONTENTFORMAT_END
171
     0
 94
        6
 95
        1
302
GRIDFORMAT
  1
GRIDFORMAT_BEGIN
 90
        0
 91
        1
 62
     0
 92
       -2
340
0
 93
        1
 40
0.045
309
GRIDFORMAT_END
 95
        2
302
GRIDFORMAT
  1
GRIDFORMAT_BEGIN
 90
        0
 91
        1
 62
     0
 92
       -2
340
0
 93
        1
 40
0.045
309
GRIDFORMAT_END
 95
        4
302
GRIDFORMAT
  1
GRIDFORMAT_BEGIN
 90
        0
 91
        1
 62
     0
 92
       -2
340
0
 93
        1
 40
0.045
309
GRIDFORMAT_END
 95
        8
302
GRIDFORMAT
  1
GRIDFORMAT_BEGIN
 90
        0
 91
        1
 62
     0
 92
       -2
340
0
 93
        1
 40
0.045
309
GRIDFORMAT_END
 95
       16
302
GRIDFORMAT
  1
GRIDFORMAT_BEGIN
 90
        0
 91
        1
 62
     0
 92
       -2
340
0
 93
        1
 40
0.045
309
GRIDFORMAT_END
 95
       32
302
GRIDFORMAT
  1
GRIDFORMAT_BEGIN
 90
        0
 91
        1
 62
     0
 92
       -2
340
0
 93
        1
 40
0.045
309
GRIDFORMAT_END
309
TABLEFORMAT_END
  1
CELLSTYLE_BEGIN
 90
        1
 91
        1
300
_TITLE
309
CELLSTYLE_END
300
CELLSTYLE
  1
TABLEFORMAT_BEGIN
 90
        5
170
     1
 91
        0
 92
        0
 62
   257
 93
        1
300
CONTENTFORMAT
  1
CONTENTFORMAT_BEGIN
 90
        0
 91
        0
 92
      512
 93
        0
300

 40
0.0
140
1.0
 94
        4
 62
     0
340
180
144
0.4
309
CONTENTFORMAT_END
171
     0
 94
        6
 95
        1
302
GRIDFORMAT
  1
GRIDFORMAT_BEGIN
 90
        0
 91
        1
 62
     0
 92
       -2
340
0
 93
        1
 40
0.045
309
GRIDFORMAT_END
 95
        2
302
GRIDFORMAT
  1
GRIDFORMAT_BEGIN
 90
        0
 91
        1
 62
     0
 92
       -2
340
0
 93
        1
 40
0.045
309
GRIDFORMAT_END
 95
        4
302
GRIDFORMAT
  1
GRIDFORMAT_BEGIN
 90
        0
 91
        1
 62
     0
 92
       -2
340
0
 93
        1
 40
0.045
309
GRIDFORMAT_END
 95
        8
302
GRIDFORMAT
  1
GRIDFORMAT_BEGIN
 90
        0
 91
        1
 62
     0
 92
       -2
340
0
 93
        1
 40
0.045
309
GRIDFORMAT_END
 95
       16
302
GRIDFORMAT
  1
GRIDFORMAT_BEGIN
 90
        0
 91
        1
 62
     0
 92
       -2
340
0
 93
        1
 40
0.045
309
GRIDFORMAT_END
 95
       32
302
GRIDFORMAT
  1
GRIDFORMAT_BEGIN
 90
        0
 91
        1
 62
     0
 92
       -2
340
0
 93
        1
 40
0.045
309
GRIDFORMAT_END
309
TABLEFORMAT_END
  1
CELLSTYLE_BEGIN
 90
        2
 91
        1
300
_HEADER
309
CELLSTYLE_END
300
CELLSTYLE
  1
TABLEFORMAT_BEGIN
 90
        5
170
     1
 91
        0
 92
        0
 62
   257
 93
        1
300
CONTENTFORMAT
  1
CONTENTFORMAT_BEGIN
 90
        0
 91
        0
 92
      512
 93
        0
300

 40
0.0
140
1.0
 94
        4
 62
     0
340
180
144
0.4
309
CONTENTFORMAT_END
171
     0
 94
        6
 95
        1
302
GRIDFORMAT
  1
GRIDFORMAT_BEGIN
 90
        0
 91
        1
 62
     0
 92
       -2
340
0
 93
        1
 40
0.045
309
GRIDFORMAT_END
 95
        2
302
GRIDFORMAT
  1
GRIDFORMAT_BEGIN
 90
        0
 91
        1
 62
     0
 92
       -2
340
0
 93
        1
 40
0.045
309
GRIDFORMAT_END
 95
        4
302
GRIDFORMAT
  1
GRIDFORMAT_BEGIN
 90
        0
 91
        1
 62
     0
 92
       -2
340
0
 93
        1
 40
0.045
309
GRIDFORMAT_END
 95
        8
302
GRIDFORMAT
  1
GRIDFORMAT_BEGIN
 90
        0
 91
        1
 62
     0
 92
       -2
340
0
 93
        1
 40
0.045
309
GRIDFORMAT_END
 95
       16
302
GRIDFORMAT
  1
GRIDFORMAT_BEGIN
 90
        0
 91
        1
 62
     0
 92
       -2
340
0
 93
        1
 40
0.045
309
GRIDFORMAT_END
 95
       32
302
GRIDFORMAT
  1
GRIDFORMAT_BEGIN
 90
        0
 91
        1
 62
     0
 92
       -2
340
0
 93
        1
 40
0.045
309
GRIDFORMAT_END
309
TABLEFORMAT_END
  1
CELLSTYLE_BEGIN
 90
        3
 91
        2
300
_DATA
309
CELLSTYLE_END
  0
XRECORD
  5
D919
102
{ACAD_REACTORS
330
D8A9
102
}
330
D8A9
100
AcDbXrecord
280
     1
102
ACAD_ROUNDTRIP_PRE2007_TABLESTYLE
 90
      512
 91
        0
  1

 92
      512
 93
        0
  2

 94
      512
 95
        0
  3

  0
CELLSTYLEMAP
  5
D8EA
102
{ACAD_REACTORS
330
104
102
}
330
104
100
AcDbCellStyleMap
 90
        3
300
CELLSTYLE
  1
TABLEFORMAT_BEGIN
 90
        5
170
     1
 91
        0
 92
    32768
 62
   257
 93
        1
300
CONTENTFORMAT
  1
CONTENTFORMAT_BEGIN
 90
        0
 91
        0
 92
      512
 93
        0
300

 40
0.0
140
1.0
 94
        5
 62
     0
340
11
144
0.25
309
CONTENTFORMAT_END
171
     1
301
MARGIN
  1
CELLMARGIN_BEGIN
 40
0.06
 40
0.06
 40
0.06
 40
0.06
 40
0.18
 40
0.18
309
CELLMARGIN_END
 94
        6
 95
        1
302
GRIDFORMAT
  1
GRIDFORMAT_BEGIN
 90
        0
 91
        1
 62
     0
 92
       -2
340
0
 93
        0
 40
0.045
309
GRIDFORMAT_END
 95
        2
302
GRIDFORMAT
  1
GRIDFORMAT_BEGIN
 90
        0
 91
        1
 62
     0
 92
       -2
340
0
 93
        0
 40
0.045
309
GRIDFORMAT_END
 95
        4
302
GRIDFORMAT
  1
GRIDFORMAT_BEGIN
 90
        0
 91
        1
 62
     0
 92
       -2
340
0
 93
        0
 40
0.045
309
GRIDFORMAT_END
 95
        8
302
GRIDFORMAT
  1
GRIDFORMAT_BEGIN
 90
        0
 91
        1
 62
     0
 92
       -2
340
0
 93
        0
 40
0.045
309
GRIDFORMAT_END
 95
       16
302
GRIDFORMAT
  1
GRIDFORMAT_BEGIN
 90
        0
 91
        1
 62
     0
 92
       -2
340
0
 93
        0
 40
0.045
309
GRIDFORMAT_END
 95
       32
302
GRIDFORMAT
  1
GRIDFORMAT_BEGIN
 90
        0
 91
        1
 62
     0
 92
       -2
340
0
 93
        0
 40
0.045
309
GRIDFORMAT_END
309
TABLEFORMAT_END
  1
CELLSTYLE_BEGIN
 90
        1
 91
        1
300
_TITLE
309
CELLSTYLE_END
300
CELLSTYLE
  1
TABLEFORMAT_BEGIN
 90
        5
170
     1
 91
        0
 92
        0
 62
   257
 93
        1
300
CONTENTFORMAT
  1
CONTENTFORMAT_BEGIN
 90
        0
 91
        0
 92
      512
 93
        0
300

 40
0.0
140
1.0
 94
        5
 62
     0
340
11
144
0.18
309
CONTENTFORMAT_END
171
     1
301
MARGIN
  1
CELLMARGIN_BEGIN
 40
0.06
 40
0.06
 40
0.06
 40
0.06
 40
0.18
 40
0.18
309
CELLMARGIN_END
 94
        6
 95
        1
302
GRIDFORMAT
  1
GRIDFORMAT_BEGIN
 90
        0
 91
        1
 62
     0
 92
       -2
340
0
 93
        0
 40
0.045
309
GRIDFORMAT_END
 95
        2
302
GRIDFORMAT
  1
GRIDFORMAT_BEGIN
 90
        0
 91
        1
 62
     0
 92
       -2
340
0
 93
        0
 40
0.045
309
GRIDFORMAT_END
 95
        4
302
GRIDFORMAT
  1
GRIDFORMAT_BEGIN
 90
        0
 91
        1
 62
     0
 92
       -2
340
0
 93
        0
 40
0.045
309
GRIDFORMAT_END
 95
        8
302
GRIDFORMAT
  1
GRIDFORMAT_BEGIN
 90
        0
 91
        1
 62
     0
 92
       -2
340
0
 93
        0
 40
0.045
309
GRIDFORMAT_END
 95
       16
302
GRIDFORMAT
  1
GRIDFORMAT_BEGIN
 90
        0
 91
        1
 62
     0
 92
       -2
340
0
 93
        0
 40
0.045
309
GRIDFORMAT_END
 95
       32
302
GRIDFORMAT
  1
GRIDFORMAT_BEGIN
 90
        0
 91
        1
 62
     0
 92
       -2
340
0
 93
        0
 40
0.045
309
GRIDFORMAT_END
309
TABLEFORMAT_END
  1
CELLSTYLE_BEGIN
 90
        2
 91
        1
300
_HEADER
309
CELLSTYLE_END
300
CELLSTYLE
  1
TABLEFORMAT_BEGIN
 90
        5
170
     1
 91
        0
 92
        0
 62
   257
 93
        1
300
CONTENTFORMAT
  1
CONTENTFORMAT_BEGIN
 90
        0
 91
        0
 92
      512
 93
        0
300

 40
0.0
140
1.0
 94
        2
 62
     0
340
11
144
0.18
309
CONTENTFORMAT_END
171
     1
301
MARGIN
  1
CELLMARGIN_BEGIN
 40
0.06
 40
0.06
 40
0.06
 40
0.06
 40
0.18
 40
0.18
309
CELLMARGIN_END
 94
        6
 95
        1
302
GRIDFORMAT
  1
GRIDFORMAT_BEGIN
 90
        0
 91
        1
 62
     0
 92
       -2
340
0
 93
        0
 40
0.045
309
GRIDFORMAT_END
 95
        2
302
GRIDFORMAT
  1
GRIDFORMAT_BEGIN
 90
        0
 91
        1
 62
     0
 92
       -2
340
0
 93
        0
 40
0.045
309
GRIDFORMAT_END
 95
        4
302
GRIDFORMAT
  1
GRIDFORMAT_BEGIN
 90
        0
 91
        1
 62
     0
 92
       -2
340
0
 93
        0
 40
0.045
309
GRIDFORMAT_END
 95
        8
302
GRIDFORMAT
  1
GRIDFORMAT_BEGIN
 90
        0
 91
        1
 62
     0
 92
       -2
340
0
 93
        0
 40
0.045
309
GRIDFORMAT_END
 95
       16
302
GRIDFORMAT
  1
GRIDFORMAT_BEGIN
 90
        0
 91
        1
 62
     0
 92
       -2
340
0
 93
        0
 40
0.045
309
GRIDFORMAT_END
 95
       32
302
GRIDFORMAT
  1
GRIDFORMAT_BEGIN
 90
        0
 91
        1
 62
     0
 92
       -2
340
0
 93
        0
 40
0.045
309
GRIDFORMAT_END
309
TABLEFORMAT_END
  1
CELLSTYLE_BEGIN
 90
        3
 91
        2
300
_DATA
309
CELLSTYLE_END
  0
XRECORD
  5
D8ED
102
{ACAD_REACTORS
330
104
102
}
330
104
100
AcDbXrecord
280
     1
102
ACAD_ROUNDTRIP_PRE2007_TABLESTYLE
 90
      512
 91
        0
  1

 92
      512
 93
        0
  2

 94
      512
 95
        0
  3

  0
XRECORD
  5
D8FE
102
{ACAD_REACTORS
330
D8FD
102
}
330
D8FD
100
AcDbXrecord
280
     1
102
RTVSPropertyOp0
 70
     1
102
RTVSPropertyOp1
 70
     1
102
RTVSPropertyOp2
 70
     1
102
RTVSPropertyOp3
 70
     1
102
RTVSPropertyOp4
 70
     1
102
RTVSPropertyOp5
 70
     1
102
RTVSPropertyOp6
 70
     1
102
RTVSPropertyOp7
 70
     1
102
RTVSPropertyOp8
 70
     1
102
RTVSPropertyOp9
 70
     1
102
RTVSPropertyOp10
 70
     1
102
RTVSPropertyOp11
 70
     1
102
RTVSPropertyOp12
 70
     1
102
RTVSPropertyOp13
 70
     1
102
RTVSPropertyOp14
 70
     1
102
RTVSPropertyOp15
 70
     1
102
RTVSPropertyOp16
 70
     1
102
RTVSPropertyOp17
 70
     1
102
RTVSPropertyOp18
 70
     1
102
RTVSPropertyOp19
 70
     1
102
RTVSPropertyOp20
 70
     1
102
RTVSPropertyOp21
 70
     1
102
RTVSPropertyOp22
 70
     1
102
RTVSPropertyOp23
 70
     1
102
RTVSPropertyOp24
 70
     1
102
RTVSPropertyOp25
 70
     1
102
RTVSPropertyOp26
 70
     1
102
RTVSPropertyOp27
 70
     1
  0
XRECORD
  5
D902
102
{ACAD_REACTORS
330
D901
102
}
330
D901
100
AcDbXrecord
280
     1
102
RTVSPropertyOp0
 70
     1
102
RTVSPropertyOp1
 70
     1
102
RTVSPropertyOp2
 70
     1
102
RTVSPropertyOp3
 70
     1
102
RTVSPropertyOp4
 70
     1
102
RTVSPropertyOp5
 70
     1
102
RTVSPropertyOp6
 70
     1
102
RTVSPropertyOp7
 70
     1
102
RTVSPropertyOp8
 70
     1
102
RTVSPropertyOp9
 70
     1
102
RTVSPropertyOp10
 70
     1
102
RTVSPropertyOp11
 70
     1
102
RTVSPropertyOp12
 70
     1
102
RTVSPropertyOp13
 70
     1
102
RTVSPropertyOp14
 70
     1
102
RTVSPropertyOp15
 70
     1
102
RTVSPropertyOp16
 70
     1
102
RTVSPropertyOp17
 70
     1
102
RTVSPropertyOp18
 70
     1
102
RTVSPropertyOp19
 70
     1
102
RTVSPropertyOp20
 70
     1
102
RTVSPropertyOp21
 70
     1
102
RTVSPropertyOp22
 70
     1
102
RTVSPropertyOp23
 70
     1
102
RTVSPropertyOp24
 70
     1
102
RTVSPropertyOp25
 70
     1
102
RTVSPropertyOp26
 70
     1
102
RTVSPropertyOp27
 70
     1
  0
XRECORD
  5
D900
102
{ACAD_REACTORS
330
D8FF
102
}
330
D8FF
100
AcDbXrecord
280
     1
102
RTVSPropertyOp0
 70
     1
102
RTVSPropertyOp1
 70
     1
102
RTVSPropertyOp2
 70
     1
102
RTVSPropertyOp3
 70
     1
102
RTVSPropertyOp4
 70
     1
102
RTVSPropertyOp5
 70
     1
102
RTVSPropertyOp6
 70
     1
102
RTVSPropertyOp7
 70
     1
102
RTVSPropertyOp8
 70
     1
102
RTVSPropertyOp9
 70
     1
102
RTVSPropertyOp10
 70
     1
102
RTVSPropertyOp11
 70
     1
102
RTVSPropertyOp12
 70
     1
102
RTVSPropertyOp13
 70
     1
102
RTVSPropertyOp14
 70
     1
102
RTVSPropertyOp15
 70
     1
102
RTVSPropertyOp16
 70
     1
102
RTVSPropertyOp17
 70
     1
102
RTVSPropertyOp18
 70
     1
102
RTVSPropertyOp19
 70
     1
102
RTVSPropertyOp20
 70
     1
102
RTVSPropertyOp21
 70
     1
102
RTVSPropertyOp22
 70
     1
102
RTVSPropertyOp23
 70
     1
102
RTVSPropertyOp24
 70
     1
102
RTVSPropertyOp25
 70
     1
102
RTVSPropertyOp26
 70
     1
102
RTVSPropertyOp27
 70
     1
  0
XRECORD
  5
D8FC
102
{ACAD_REACTORS
330
D8FB
102
}
330
D8FB
100
AcDbXrecord
280
     1
102
RTVSPropertyOp0
 70
     1
102
RTVSPropertyOp1
 70
     1
102
RTVSPropertyOp2
 70
     1
102
RTVSPropertyOp3
 70
     1
102
RTVSPropertyOp4
 70
     1
102
RTVSPropertyOp5
 70
     1
102
RTVSPropertyOp6
 70
     1
102
RTVSPropertyOp7
 70
     1
102
RTVSPropertyOp8
 70
     1
102
RTVSPropertyOp9
 70
     1
102
RTVSPropertyOp10
 70
     1
102
RTVSPropertyOp11
 70
     1
102
RTVSPropertyOp12
 70
     1
102
RTVSPropertyOp13
 70
     1
102
RTVSPropertyOp14
 70
     1
102
RTVSPropertyOp15
 70
     1
102
RTVSPropertyOp16
 70
     1
102
RTVSPropertyOp17
 70
     1
102
RTVSPropertyOp18
 70
     1
102
RTVSPropertyOp19
 70
     1
102
RTVSPropertyOp20
 70
     1
102
RTVSPropertyOp21
 70
     1
102
RTVSPropertyOp22
 70
     1
102
RTVSPropertyOp23
 70
     1
102
RTVSPropertyOp24
 70
     1
102
RTVSPropertyOp25
 70
     1
102
RTVSPropertyOp26
 70
     1
102
RTVSPropertyOp27
 70
     1
  0
XRECORD
  5
D90A
102
{ACAD_REACTORS
330
D909
102
}
330
D909
100
AcDbXrecord
280
     1
102
RTVSPropertyOp0
 70
     1
102
RTVSPropertyOp1
 70
     1
102
RTVSPropertyOp2
 70
     1
102
RTVSPropertyOp3
 70
     1
102
RTVSPropertyOp4
 70
     1
102
RTVSPropertyOp5
 70
     1
102
RTVSPropertyOp6
 70
     1
102
RTVSPropertyOp7
 70
     1
102
RTVSPropertyOp8
 70
     1
102
RTVSPropertyOp9
 70
     1
102
RTVSPropertyOp10
 70
     1
102
RTVSPropertyOp11
 70
     1
102
RTVSPropertyOp12
 70
     1
102
RTVSPropertyOp13
 70
     1
102
RTVSPropertyOp14
 70
     1
102
RTVSPropertyOp15
 70
     1
102
RTVSPropertyOp16
 70
     1
102
RTVSPropertyOp17
 70
     1
102
RTVSPropertyOp18
 70
     1
102
RTVSPropertyOp19
 70
     1
102
RTVSPropertyOp20
 70
     1
102
RTVSPropertyOp21
 70
     1
102
RTVSPropertyOp22
 70
     1
102
RTVSPropertyOp23
 70
     1
102
RTVSPropertyOp24
 70
     1
102
RTVSPropertyOp25
 70
     1
102
RTVSPropertyOp26
 70
     1
102
RTVSPropertyOp27
 70
     1
  0
XRECORD
  5
D912
102
{ACAD_REACTORS
330
D911
102
}
330
D911
100
AcDbXrecord
280
     1
102
RTVSPropertyOp0
 70
     1
102
RTVSPropertyOp1
 70
     1
102
RTVSPropertyOp2
 70
     1
102
RTVSPropertyOp3
 70
     1
102
RTVSPropertyOp4
 70
     1
102
RTVSPropertyOp5
 70
     1
102
RTVSPropertyOp6
 70
     1
102
RTVSPropertyOp7
 70
     1
102
RTVSPropertyOp8
 70
     1
102
RTVSPropertyOp9
 70
     1
102
RTVSPropertyOp10
 70
     1
102
RTVSPropertyOp11
 70
     1
102
RTVSPropertyOp12
 70
     1
102
RTVSPropertyOp13
 70
     1
102
RTVSPropertyOp14
 70
     1
102
RTVSPropertyOp15
 70
     1
102
RTVSPropertyOp16
 70
     1
102
RTVSPropertyOp17
 70
     1
102
RTVSPropertyOp18
 70
     1
102
RTVSPropertyOp19
 70
     1
102
RTVSPropertyOp20
 70
     1
102
RTVSPropertyOp21
 70
     1
102
RTVSPropertyOp22
 70
     1
102
RTVSPropertyOp23
 70
     1
102
RTVSPropertyOp24
 70
     1
102
RTVSPropertyOp25
 70
     1
102
RTVSPropertyOp26
 70
     1
102
RTVSPropertyOp27
 70
     1
  0
XRECORD
  5
D904
102
{ACAD_REACTORS
330
D903
102
}
330
D903
100
AcDbXrecord
280
     1
102
RTVSPropertyOp0
 70
     1
102
RTVSPropertyOp1
 70
     1
102
RTVSPropertyOp2
 70
     1
102
RTVSPropertyOp3
 70
     1
102
RTVSPropertyOp4
 70
     1
102
RTVSPropertyOp5
 70
     1
102
RTVSPropertyOp6
 70
     1
102
RTVSPropertyOp7
 70
     1
102
RTVSPropertyOp8
 70
     1
102
RTVSPropertyOp9
 70
     1
102
RTVSPropertyOp10
 70
     1
102
RTVSPropertyOp11
 70
     1
102
RTVSPropertyOp12
 70
     1
102
RTVSPropertyOp13
 70
     1
102
RTVSPropertyOp14
 70
     1
102
RTVSPropertyOp15
 70
     1
102
RTVSPropertyOp16
 70
     1
102
RTVSPropertyOp17
 70
     1
102
RTVSPropertyOp18
 70
     1
102
RTVSPropertyOp19
 70
     1
102
RTVSPropertyOp20
 70
     1
102
RTVSPropertyOp21
 70
     1
102
RTVSPropertyOp22
 70
     1
102
RTVSPropertyOp23
 70
     1
102
RTVSPropertyOp24
 70
     1
102
RTVSPropertyOp25
 70
     1
102
RTVSPropertyOp26
 70
     1
102
RTVSPropertyOp27
 70
     1
  0
XRECORD
  5
D908
102
{ACAD_REACTORS
330
D907
102
}
330
D907
100
AcDbXrecord
280
     1
102
RTVSPropertyOp0
 70
     1
102
RTVSPropertyOp1
 70
     1
102
RTVSPropertyOp2
 70
     1
102
RTVSPropertyOp3
 70
     1
102
RTVSPropertyOp4
 70
     1
102
RTVSPropertyOp5
 70
     1
102
RTVSPropertyOp6
 70
     1
102
RTVSPropertyOp7
 70
     1
102
RTVSPropertyOp8
 70
     1
102
RTVSPropertyOp9
 70
     1
102
RTVSPropertyOp10
 70
     1
102
RTVSPropertyOp11
 70
     1
102
RTVSPropertyOp12
 70
     1
102
RTVSPropertyOp13
 70
     1
102
RTVSPropertyOp14
 70
     1
102
RTVSPropertyOp15
 70
     1
102
RTVSPropertyOp16
 70
     1
102
RTVSPropertyOp17
 70
     1
102
RTVSPropertyOp18
 70
     1
102
RTVSPropertyOp19
 70
     1
102
RTVSPropertyOp20
 70
     1
102
RTVSPropertyOp21
 70
     1
102
RTVSPropertyOp22
 70
     1
102
RTVSPropertyOp23
 70
     1
102
RTVSPropertyOp24
 70
     1
102
RTVSPropertyOp25
 70
     1
102
RTVSPropertyOp26
 70
     1
102
RTVSPropertyOp27
 70
     1
  0
XRECORD
  5
D918
102
{ACAD_REACTORS
330
D917
102
}
330
D917
100
AcDbXrecord
280
     1
102
RTVSPropertyOp0
 70
     0
102
RTVSPropertyOp1
 70
     0
102
RTVSPropertyOp2
 70
     0
102
RTVSPropertyOp3
 70
     0
102
RTVSPropertyOp4
 70
     0
102
RTVSPropertyOp5
 70
     0
102
RTVSPropertyOp6
 70
     0
102
RTVSPropertyOp7
 70
     0
102
RTVSPropertyOp8
 70
     0
102
RTVSPropertyOp9
 70
     0
102
RTVSPropertyOp10
 70
     0
102
RTVSPropertyOp11
 70
     0
102
RTVSPropertyOp12
 70
     0
102
RTVSPropertyOp13
 70
     0
102
RTVSPropertyOp14
 70
     2
102
RTVSPropertyOp15
 70
     0
102
RTVSPropertyOp16
 70
     0
102
RTVSPropertyOp17
 70
     0
102
RTVSPropertyOp18
 70
     0
102
RTVSPropertyOp19
 70
     0
102
RTVSPropertyOp20
 70
     0
102
RTVSPropertyOp21
 70
     0
102
RTVSPropertyOp22
 70
     0
102
RTVSPropertyOp23
 70
     0
102
RTVSPropertyOp24
 70
     0
102
RTVSPropertyOp25
 70
     0
102
RTVSPropertyOp26
 70
     0
102
RTVSPropertyOp27
 70
     0
  0
XRECORD
  5
D910
102
{ACAD_REACTORS
330
D90F
102
}
330
D90F
100
AcDbXrecord
280
     1
102
RTVSPropertyOp0
 70
     1
102
RTVSPropertyOp1
 70
     1
102
RTVSPropertyOp2
 70
     1
102
RTVSPropertyOp3
 70
     1
102
RTVSPropertyOp4
 70
     1
102
RTVSPropertyOp5
 70
     1
102
RTVSPropertyOp6
 70
     1
102
RTVSPropertyOp7
 70
     1
102
RTVSPropertyOp8
 70
     1
102
RTVSPropertyOp9
 70
     1
102
RTVSPropertyOp10
 70
     1
102
RTVSPropertyOp11
 70
     1
102
RTVSPropertyOp12
 70
     1
102
RTVSPropertyOp13
 70
     1
102
RTVSPropertyOp14
 70
     1
102
RTVSPropertyOp15
 70
     1
102
RTVSPropertyOp16
 70
     1
102
RTVSPropertyOp17
 70
     1
102
RTVSPropertyOp18
 70
     1
102
RTVSPropertyOp19
 70
     1
102
RTVSPropertyOp20
 70
     1
102
RTVSPropertyOp21
 70
     1
102
RTVSPropertyOp22
 70
     1
102
RTVSPropertyOp23
 70
     1
102
RTVSPropertyOp24
 70
     1
102
RTVSPropertyOp25
 70
     1
102
RTVSPropertyOp26
 70
     1
102
RTVSPropertyOp27
 70
     1
  0
XRECORD
  5
D8F4
102
{ACAD_REACTORS
330
D8F3
102
}
330
D8F3
100
AcDbXrecord
280
     1
102
RTVSPropertyOp0
 70
     1
102
RTVSPropertyOp1
 70
     1
102
RTVSPropertyOp2
 70
     1
102
RTVSPropertyOp3
 70
     1
102
RTVSPropertyOp4
 70
     1
102
RTVSPropertyOp5
 70
     1
102
RTVSPropertyOp6
 70
     1
102
RTVSPropertyOp7
 70
     1
102
RTVSPropertyOp8
 70
     1
102
RTVSPropertyOp9
 70
     1
102
RTVSPropertyOp10
 70
     1
102
RTVSPropertyOp11
 70
     1
102
RTVSPropertyOp12
 70
     1
102
RTVSPropertyOp13
 70
     1
102
RTVSPropertyOp14
 70
     1
102
RTVSPropertyOp15
 70
     1
102
RTVSPropertyOp16
 70
     1
102
RTVSPropertyOp17
 70
     1
102
RTVSPropertyOp18
 70
     1
102
RTVSPropertyOp19
 70
     1
102
RTVSPropertyOp20
 70
     1
102
RTVSPropertyOp21
 70
     1
102
RTVSPropertyOp22
 70
     1
102
RTVSPropertyOp23
 70
     1
102
RTVSPropertyOp24
 70
     1
102
RTVSPropertyOp25
 70
     1
102
RTVSPropertyOp26
 70
     1
102
RTVSPropertyOp27
 70
     1
  0
XRECORD
  5
D8F6
102
{ACAD_REACTORS
330
D8F5
102
}
330
D8F5
100
AcDbXrecord
280
     1
102
RTVSPropertyOp0
 70
     1
102
RTVSPropertyOp1
 70
     1
102
RTVSPropertyOp2
 70
     1
102
RTVSPropertyOp3
 70
     1
102
RTVSPropertyOp4
 70
     1
102
RTVSPropertyOp5
 70
     1
102
RTVSPropertyOp6
 70
     1
102
RTVSPropertyOp7
 70
     1
102
RTVSPropertyOp8
 70
     1
102
RTVSPropertyOp9
 70
     1
102
RTVSPropertyOp10
 70
     1
102
RTVSPropertyOp11
 70
     1
102
RTVSPropertyOp12
 70
     1
102
RTVSPropertyOp13
 70
     1
102
RTVSPropertyOp14
 70
     1
102
RTVSPropertyOp15
 70
     1
102
RTVSPropertyOp16
 70
     1
102
RTVSPropertyOp17
 70
     1
102
RTVSPropertyOp18
 70
     1
102
RTVSPropertyOp19
 70
     1
102
RTVSPropertyOp20
 70
     1
102
RTVSPropertyOp21
 70
     1
102
RTVSPropertyOp22
 70
     1
102
RTVSPropertyOp23
 70
     1
102
RTVSPropertyOp24
 70
     1
102
RTVSPropertyOp25
 70
     1
102
RTVSPropertyOp26
 70
     1
102
RTVSPropertyOp27
 70
     1
  0
XRECORD
  5
D8F8
102
{ACAD_REACTORS
330
D8F7
102
}
330
D8F7
100
AcDbXrecord
280
     1
102
RTVSPropertyOp0
 70
     1
102
RTVSPropertyOp1
 70
     1
102
RTVSPropertyOp2
 70
     1
102
RTVSPropertyOp3
 70
     1
102
RTVSPropertyOp4
 70
     1
102
RTVSPropertyOp5
 70
     1
102
RTVSPropertyOp6
 70
     1
102
RTVSPropertyOp7
 70
     1
102
RTVSPropertyOp8
 70
     1
102
RTVSPropertyOp9
 70
     1
102
RTVSPropertyOp10
 70
     1
102
RTVSPropertyOp11
 70
     1
102
RTVSPropertyOp12
 70
     1
102
RTVSPropertyOp13
 70
     1
102
RTVSPropertyOp14
 70
     1
102
RTVSPropertyOp15
 70
     1
102
RTVSPropertyOp16
 70
     1
102
RTVSPropertyOp17
 70
     1
102
RTVSPropertyOp18
 70
     1
102
RTVSPropertyOp19
 70
     1
102
RTVSPropertyOp20
 70
     1
102
RTVSPropertyOp21
 70
     1
102
RTVSPropertyOp22
 70
     1
102
RTVSPropertyOp23
 70
     1
102
RTVSPropertyOp24
 70
     1
102
RTVSPropertyOp25
 70
     1
102
RTVSPropertyOp26
 70
     1
102
RTVSPropertyOp27
 70
     1
  0
XRECORD
  5
D8FA
102
{ACAD_REACTORS
330
D8F9
102
}
330
D8F9
100
AcDbXrecord
280
     1
102
RTVSPropertyOp0
 70
     1
102
RTVSPropertyOp1
 70
     1
102
RTVSPropertyOp2
 70
     1
102
RTVSPropertyOp3
 70
     1
102
RTVSPropertyOp4
 70
     1
102
RTVSPropertyOp5
 70
     1
102
RTVSPropertyOp6
 70
     1
102
RTVSPropertyOp7
 70
     1
102
RTVSPropertyOp8
 70
     1
102
RTVSPropertyOp9
 70
     1
102
RTVSPropertyOp10
 70
     1
102
RTVSPropertyOp11
 70
     1
102
RTVSPropertyOp12
 70
     1
102
RTVSPropertyOp13
 70
     1
102
RTVSPropertyOp14
 70
     1
102
RTVSPropertyOp15
 70
     1
102
RTVSPropertyOp16
 70
     1
102
RTVSPropertyOp17
 70
     1
102
RTVSPropertyOp18
 70
     1
102
RTVSPropertyOp19
 70
     1
102
RTVSPropertyOp20
 70
     1
102
RTVSPropertyOp21
 70
     1
102
RTVSPropertyOp22
 70
     1
102
RTVSPropertyOp23
 70
     1
102
RTVSPropertyOp24
 70
     1
102
RTVSPropertyOp25
 70
     1
102
RTVSPropertyOp26
 70
     1
102
RTVSPropertyOp27
 70
     1
  0
XRECORD
  5
1B0
102
{ACAD_REACTORS
330
1AF
102
}
330
1AF
100
AcDbXrecord
280
     1
102
RTVSPropertyOp28
 70
     1
102
RTVSPropertyOp29
 70
     1
102
RTVSPropertyOp30
 70
     1
102
RTVSPropertyOp31
 70
     1
102
RTVSPropertyOp32
 70
     1
102
RTVSPropertyOp0
 70
     1
102
RTVSPropertyOp1
 70
     1
102
RTVSPropertyOp2
 70
     1
102
RTVSPropertyOp3
 70
     1
102
RTVSPropertyOp4
 70
     1
102
RTVSPropertyOp5
 70
     1
102
RTVSPropertyOp6
 70
     1
102
RTVSPropertyOp7
 70
     1
102
RTVSPropertyOp8
 70
     1
102
RTVSPropertyOp9
 70
     1
102
RTVSPropertyOp10
 70
     1
102
RTVSPropertyOp11
 70
     1
102
RTVSPropertyOp12
 70
     1
102
RTVSPropertyOp13
 70
     1
102
RTVSPropertyOp14
 70
     1
102
RTVSPropertyOp15
 70
     1
102
RTVSPropertyOp16
 70
     1
102
RTVSPropertyOp17
 70
     1
102
RTVSPropertyOp18
 70
     1
102
RTVSPropertyOp19
 70
     1
102
RTVSPropertyOp20
 70
     1
102
RTVSPropertyOp21
 70
     1
102
RTVSPropertyOp22
 70
     1
102
RTVSPropertyOp23
 70
     1
102
RTVSPropertyOp24
 70
     1
102
RTVSPropertyOp25
 70
     1
102
RTVSPropertyOp26
 70
     1
102
RTVSPropertyOp27
 70
     1
  0
XRECORD
  5
D914
102
{ACAD_REACTORS
330
D913
102
}
330
D913
100
AcDbXrecord
280
     1
102
RTVSPropertyOp0
 70
     0
102
RTVSPropertyOp1
 70
     0
102
RTVSPropertyOp2
 70
     0
102
RTVSPropertyOp3
 70
     0
102
RTVSPropertyOp4
 70
     0
102
RTVSPropertyOp5
 70
     0
102
RTVSPropertyOp6
 70
     0
102
RTVSPropertyOp7
 70
     0
102
RTVSPropertyOp8
 70
     0
102
RTVSPropertyOp9
 70
     0
102
RTVSPropertyOp10
 70
     0
102
RTVSPropertyOp11
 70
     0
102
RTVSPropertyOp12
 70
     0
102
RTVSPropertyOp13
 70
     0
102
RTVSPropertyOp14
 70
     2
102
RTVSPropertyOp15
 70
     0
102
RTVSPropertyOp16
 70
     0
102
RTVSPropertyOp17
 70
     0
102
RTVSPropertyOp18
 70
     0
102
RTVSPropertyOp19
 70
     0
102
RTVSPropertyOp20
 70
     0
102
RTVSPropertyOp21
 70
     0
102
RTVSPropertyOp22
 70
     0
102
RTVSPropertyOp23
 70
     0
102
RTVSPropertyOp24
 70
     0
102
RTVSPropertyOp25
 70
     0
102
RTVSPropertyOp26
 70
     0
102
RTVSPropertyOp27
 70
     0
  0
XRECORD
  5
D90E
102
{ACAD_REACTORS
330
D90D
102
}
330
D90D
100
AcDbXrecord
280
     1
102
RTVSPropertyOp0
 70
     1
102
RTVSPropertyOp1
 70
     1
102
RTVSPropertyOp2
 70
     1
102
RTVSPropertyOp3
 70
     1
102
RTVSPropertyOp4
 70
     1
102
RTVSPropertyOp5
 70
     1
102
RTVSPropertyOp6
 70
     1
102
RTVSPropertyOp7
 70
     1
102
RTVSPropertyOp8
 70
     1
102
RTVSPropertyOp9
 70
     1
102
RTVSPropertyOp10
 70
     1
102
RTVSPropertyOp11
 70
     1
102
RTVSPropertyOp12
 70
     1
102
RTVSPropertyOp13
 70
     1
102
RTVSPropertyOp14
 70
     1
102
RTVSPropertyOp15
 70
     1
102
RTVSPropertyOp16
 70
     1
102
RTVSPropertyOp17
 70
     1
102
RTVSPropertyOp18
 70
     1
102
RTVSPropertyOp19
 70
     1
102
RTVSPropertyOp20
 70
     1
102
RTVSPropertyOp21
 70
     1
102
RTVSPropertyOp22
 70
     1
102
RTVSPropertyOp23
 70
     1
102
RTVSPropertyOp24
 70
     1
102
RTVSPropertyOp25
 70
     1
102
RTVSPropertyOp26
 70
     1
102
RTVSPropertyOp27
 70
     1
  0
XRECORD
  5
D916
102
{ACAD_REACTORS
330
D915
102
}
330
D915
100
AcDbXrecord
280
     1
102
RTVSPropertyOp0
 70
     0
102
RTVSPropertyOp1
 70
     0
102
RTVSPropertyOp2
 70
     0
102
RTVSPropertyOp3
 70
     0
102
RTVSPropertyOp4
 70
     0
102
RTVSPropertyOp5
 70
     0
102
RTVSPropertyOp6
 70
     0
102
RTVSPropertyOp7
 70
     0
102
RTVSPropertyOp8
 70
     0
102
RTVSPropertyOp9
 70
     0
102
RTVSPropertyOp10
 70
     0
102
RTVSPropertyOp11
 70
     0
102
RTVSPropertyOp12
 70
     0
102
RTVSPropertyOp13
 70
     0
102
RTVSPropertyOp14
 70
     2
102
RTVSPropertyOp15
 70
     0
102
RTVSPropertyOp16
 70
     0
102
RTVSPropertyOp17
 70
     0
102
RTVSPropertyOp18
 70
     0
102
RTVSPropertyOp19
 70
     0
102
RTVSPropertyOp20
 70
     0
102
RTVSPropertyOp21
 70
     0
102
RTVSPropertyOp22
 70
     0
102
RTVSPropertyOp23
 70
     0
102
RTVSPropertyOp24
 70
     0
102
RTVSPropertyOp25
 70
     0
102
RTVSPropertyOp26
 70
     0
102
RTVSPropertyOp27
 70
     0
  0
XRECORD
  5
D906
102
{ACAD_REACTORS
330
D905
102
}
330
D905
100
AcDbXrecord
280
     1
102
RTVSPropertyOp0
 70
     1
102
RTVSPropertyOp1
 70
     1
102
RTVSPropertyOp2
 70
     1
102
RTVSPropertyOp3
 70
     1
102
RTVSPropertyOp4
 70
     1
102
RTVSPropertyOp5
 70
     1
102
RTVSPropertyOp6
 70
     1
102
RTVSPropertyOp7
 70
     1
102
RTVSPropertyOp8
 70
     1
102
RTVSPropertyOp9
 70
     1
102
RTVSPropertyOp10
 70
     1
102
RTVSPropertyOp11
 70
     1
102
RTVSPropertyOp12
 70
     1
102
RTVSPropertyOp13
 70
     1
102
RTVSPropertyOp14
 70
     1
102
RTVSPropertyOp15
 70
     1
102
RTVSPropertyOp16
 70
     1
102
RTVSPropertyOp17
 70
     1
102
RTVSPropertyOp18
 70
     1
102
RTVSPropertyOp19
 70
     1
102
RTVSPropertyOp20
 70
     1
102
RTVSPropertyOp21
 70
     1
102
RTVSPropertyOp22
 70
     1
102
RTVSPropertyOp23
 70
     1
102
RTVSPropertyOp24
 70
     1
102
RTVSPropertyOp25
 70
     1
102
RTVSPropertyOp26
 70
     1
102
RTVSPropertyOp27
 70
     1
  0
XRECORD
  5
1B3
102
{ACAD_REACTORS
330
1B2
102
}
330
1B2
100
AcDbXrecord
280
     1
102
RTVSPropertyOp28
 70
     1
102
RTVSPropertyOp29
 70
     1
102
RTVSPropertyOp30
 70
     1
102
RTVSPropertyOp31
 70
     1
102
RTVSPropertyOp32
 70
     1
102
RTVSPropertyOp0
 70
     1
102
RTVSPropertyOp1
 70
     1
102
RTVSPropertyOp2
 70
     1
102
RTVSPropertyOp3
 70
     1
102
RTVSPropertyOp4
 70
     1
102
RTVSPropertyOp5
 70
     1
102
RTVSPropertyOp6
 70
     1
102
RTVSPropertyOp7
 70
     1
102
RTVSPropertyOp8
 70
     1
102
RTVSPropertyOp9
 70
     1
102
RTVSPropertyOp10
 70
     1
102
RTVSPropertyOp11
 70
     1
102
RTVSPropertyOp12
 70
     1
102
RTVSPropertyOp13
 70
     1
102
RTVSPropertyOp14
 70
     1
102
RTVSPropertyOp15
 70
     1
102
RTVSPropertyOp16
 70
     1
102
RTVSPropertyOp17
 70
     1
102
RTVSPropertyOp18
 70
     1
102
RTVSPropertyOp19
 70
     1
102
RTVSPropertyOp20
 70
     1
102
RTVSPropertyOp21
 70
     1
102
RTVSPropertyOp22
 70
     1
102
RTVSPropertyOp23
 70
     1
102
RTVSPropertyOp24
 70
     1
102
RTVSPropertyOp25
 70
     1
102
RTVSPropertyOp26
 70
     1
102
RTVSPropertyOp27
 70
     1
  0
XRECORD
  5
1B6
102
{ACAD_REACTORS
330
1B5
102
}
330
1B5
100
AcDbXrecord
280
     1
102
RTVSPropertyOp28
 70
     1
102
RTVSPropertyOp29
 70
     1
102
RTVSPropertyOp30
 70
     1
102
RTVSPropertyOp31
 70
     1
102
RTVSPropertyOp32
 70
     1
102
RTVSPropertyOp0
 70
     1
102
RTVSPropertyOp1
 70
     1
102
RTVSPropertyOp2
 70
     1
102
RTVSPropertyOp3
 70
     1
102
RTVSPropertyOp4
 70
     1
102
RTVSPropertyOp5
 70
     1
102
RTVSPropertyOp6
 70
     1
102
RTVSPropertyOp7
 70
     1
102
RTVSPropertyOp8
 70
     1
102
RTVSPropertyOp9
 70
     1
102
RTVSPropertyOp10
 70
     1
102
RTVSPropertyOp11
 70
     1
102
RTVSPropertyOp12
 70
     1
102
RTVSPropertyOp13
 70
     1
102
RTVSPropertyOp14
 70
     1
102
RTVSPropertyOp15
 70
     1
102
RTVSPropertyOp16
 70
     1
102
RTVSPropertyOp17
 70
     1
102
RTVSPropertyOp18
 70
     1
102
RTVSPropertyOp19
 70
     1
102
RTVSPropertyOp20
 70
     1
102
RTVSPropertyOp21
 70
     1
102
RTVSPropertyOp22
 70
     1
102
RTVSPropertyOp23
 70
     1
102
RTVSPropertyOp24
 70
     1
102
RTVSPropertyOp25
 70
     1
102
RTVSPropertyOp26
 70
     1
102
RTVSPropertyOp27
 70
     1
  0
XRECORD
  5
1B9
102
{ACAD_REACTORS
330
1B8
102
}
330
1B8
100
AcDbXrecord
280
     1
102
RTVSPropertyOp28
 70
     1
102
RTVSPropertyOp29
 70
     1
102
RTVSPropertyOp30
 70
     1
102
RTVSPropertyOp31
 70
     1
102
RTVSPropertyOp32
 70
     1
102
RTVSPropertyOp0
 70
     1
102
RTVSPropertyOp1
 70
     1
102
RTVSPropertyOp2
 70
     1
102
RTVSPropertyOp3
 70
     1
102
RTVSPropertyOp4
 70
     1
102
RTVSPropertyOp5
 70
     1
102
RTVSPropertyOp6
 70
     1
102
RTVSPropertyOp7
 70
     1
102
RTVSPropertyOp8
 70
     1
102
RTVSPropertyOp9
 70
     1
102
RTVSPropertyOp10
 70
     1
102
RTVSPropertyOp11
 70
     1
102
RTVSPropertyOp12
 70
     1
102
RTVSPropertyOp13
 70
     1
102
RTVSPropertyOp14
 70
     1
102
RTVSPropertyOp15
 70
     1
102
RTVSPropertyOp16
 70
     1
102
RTVSPropertyOp17
 70
     1
102
RTVSPropertyOp18
 70
     1
102
RTVSPropertyOp19
 70
     1
102
RTVSPropertyOp20
 70
     1
102
RTVSPropertyOp21
 70
     1
102
RTVSPropertyOp22
 70
     1
102
RTVSPropertyOp23
 70
     1
102
RTVSPropertyOp24
 70
     1
102
RTVSPropertyOp25
 70
     1
102
RTVSPropertyOp26
 70
     1
102
RTVSPropertyOp27
 70
     1
  0
XRECORD
  5
1BC
102
{ACAD_REACTORS
330
1BB
102
}
330
1BB
100
AcDbXrecord
280
     1
102
RTVSPropertyOp28
 70
     1
102
RTVSPropertyOp29
 70
     1
102
RTVSPropertyOp30
 70
     1
102
RTVSPropertyOp31
 70
     1
102
RTVSPropertyOp32
 70
     1
102
RTVSPropertyOp0
 70
     1
102
RTVSPropertyOp1
 70
     1
102
RTVSPropertyOp2
 70
     1
102
RTVSPropertyOp3
 70
     1
102
RTVSPropertyOp4
 70
     1
102
RTVSPropertyOp5
 70
     1
102
RTVSPropertyOp6
 70
     1
102
RTVSPropertyOp7
 70
     1
102
RTVSPropertyOp8
 70
     1
102
RTVSPropertyOp9
 70
     1
102
RTVSPropertyOp10
 70
     1
102
RTVSPropertyOp11
 70
     1
102
RTVSPropertyOp12
 70
     1
102
RTVSPropertyOp13
 70
     1
102
RTVSPropertyOp14
 70
     1
102
RTVSPropertyOp15
 70
     1
102
RTVSPropertyOp16
 70
     1
102
RTVSPropertyOp17
 70
     1
102
RTVSPropertyOp18
 70
     1
102
RTVSPropertyOp19
 70
     1
102
RTVSPropertyOp20
 70
     1
102
RTVSPropertyOp21
 70
     1
102
RTVSPropertyOp22
 70
     1
102
RTVSPropertyOp23
 70
     1
102
RTVSPropertyOp24
 70
     1
102
RTVSPropertyOp25
 70
     1
102
RTVSPropertyOp26
 70
     1
102
RTVSPropertyOp27
 70
     1
  0
XRECORD
  5
D90C
102
{ACAD_REACTORS
330
D90B
102
}
330
D90B
100
AcDbXrecord
280
     1
102
RTVSPropertyOp0
 70
     1
102
RTVSPropertyOp1
 70
     1
102
RTVSPropertyOp2
 70
     1
102
RTVSPropertyOp3
 70
     1
102
RTVSPropertyOp4
 70
     1
102
RTVSPropertyOp5
 70
     1
102
RTVSPropertyOp6
 70
     1
102
RTVSPropertyOp7
 70
     1
102
RTVSPropertyOp8
 70
     1
102
RTVSPropertyOp9
 70
     1
102
RTVSPropertyOp10
 70
     1
102
RTVSPropertyOp11
 70
     1
102
RTVSPropertyOp12
 70
     1
102
RTVSPropertyOp13
 70
     1
102
RTVSPropertyOp14
 70
     1
102
RTVSPropertyOp15
 70
     1
102
RTVSPropertyOp16
 70
     1
102
RTVSPropertyOp17
 70
     1
102
RTVSPropertyOp18
 70
     1
102
RTVSPropertyOp19
 70
     1
102
RTVSPropertyOp20
 70
     1
102
RTVSPropertyOp21
 70
     1
102
RTVSPropertyOp22
 70
     1
102
RTVSPropertyOp23
 70
     1
102
RTVSPropertyOp24
 70
     1
102
RTVSPropertyOp25
 70
     1
102
RTVSPropertyOp26
 70
     1
102
RTVSPropertyOp27
 70
     1
  0
XRECORD
  5
1BF
102
{ACAD_REACTORS
330
1BE
102
}
330
1BE
100
AcDbXrecord
280
     1
102
RTVSPropertyOp28
 70
     1
102
RTVSPropertyOp29
 70
     1
102
RTVSPropertyOp30
 70
     1
102
RTVSPropertyOp31
 70
     1
102
RTVSPropertyOp32
 70
     1
102
RTVSPropertyOp0
 70
     1
102
RTVSPropertyOp1
 70
     1
102
RTVSPropertyOp2
 70
     1
102
RTVSPropertyOp3
 70
     1
102
RTVSPropertyOp4
 70
     1
102
RTVSPropertyOp5
 70
     1
102
RTVSPropertyOp6
 70
     1
102
RTVSPropertyOp7
 70
     1
102
RTVSPropertyOp8
 70
     1
102
RTVSPropertyOp9
 70
     1
102
RTVSPropertyOp10
 70
     1
102
RTVSPropertyOp11
 70
     1
102
RTVSPropertyOp12
 70
     1
102
RTVSPropertyOp13
 70
     1
102
RTVSPropertyOp14
 70
     1
102
RTVSPropertyOp15
 70
     1
102
RTVSPropertyOp16
 70
     1
102
RTVSPropertyOp17
 70
     1
102
RTVSPropertyOp18
 70
     1
102
RTVSPropertyOp19
 70
     1
102
RTVSPropertyOp20
 70
     1
102
RTVSPropertyOp21
 70
     1
102
RTVSPropertyOp22
 70
     1
102
RTVSPropertyOp23
 70
     1
102
RTVSPropertyOp24
 70
     1
102
RTVSPropertyOp25
 70
     1
102
RTVSPropertyOp26
 70
     1
102
RTVSPropertyOp27
 70
     1
  0
XRECORD
  5
1C2
102
{ACAD_REACTORS
330
1C1
102
}
330
1C1
100
AcDbXrecord
280
     1
102
RTVSPropertyOp28
 70
     1
102
RTVSPropertyOp29
 70
     1
102
RTVSPropertyOp30
 70
     1
102
RTVSPropertyOp31
 70
     1
102
RTVSPropertyOp32
 70
     1
102
RTVSPropertyOp0
 70
     1
102
RTVSPropertyOp1
 70
     1
102
RTVSPropertyOp2
 70
     1
102
RTVSPropertyOp3
 70
     1
102
RTVSPropertyOp4
 70
     1
102
RTVSPropertyOp5
 70
     1
102
RTVSPropertyOp6
 70
     1
102
RTVSPropertyOp7
 70
     1
102
RTVSPropertyOp8
 70
     1
102
RTVSPropertyOp9
 70
     1
102
RTVSPropertyOp10
 70
     1
102
RTVSPropertyOp11
 70
     1
102
RTVSPropertyOp12
 70
     1
102
RTVSPropertyOp13
 70
     1
102
RTVSPropertyOp14
 70
     1
102
RTVSPropertyOp15
 70
     1
102
RTVSPropertyOp16
 70
     1
102
RTVSPropertyOp17
 70
     1
102
RTVSPropertyOp18
 70
     1
102
RTVSPropertyOp19
 70
     1
102
RTVSPropertyOp20
 70
     1
102
RTVSPropertyOp21
 70
     1
102
RTVSPropertyOp22
 70
     1
102
RTVSPropertyOp23
 70
     1
102
RTVSPropertyOp24
 70
     1
102
RTVSPropertyOp25
 70
     1
102
RTVSPropertyOp26
 70
     1
102
RTVSPropertyOp27
 70
     1
  0
DMBASEELEMENT
  5
182
102
{ACAD_XDICTIONARY
360
186
102
}
102
{ACAD_REACTORS
330
17F
102
}
330
17F
100
AcMapDMBaseElement
 70
     1
  1
Map Base
 70
     1
330
17F
100
AcMapDMBaseElement
 70
     1
  1

 70
     2
  1

 70
     1
 40
1.797693134862314E+99
 70
     1
 70
     1
 70
     1
 70
     1
360
185
100
AcMapDMBaseElement
 70
     1
  0
DMDEFAULTSTYLE
  5
183
102
{ACAD_REACTORS
330
17F
102
}
330
17F
100
AcMapDMDefaultStyle
 70
     1
 90
        1
  1
Default
100
AcMapDMDefaultStyle
 70
     1
280
   100
 90
     0
1001
AcMapDMDisplayStyleRegapp
1070
     2
1071
        1
1000
Default
1000

  0
DICTIONARY
  5
186
330
182
100
AcDbDictionary
280
     1
281
     1
  3
AcMapDMSurrogateStyleSets
360
187
  0
DMSTYLEREFERENCE
  5
185
330
182
100
AcMapDMStyleReference
 70
     1
 70
     0
340
183
330
17F
  0
DMSURROGATESTYLESETS
  5
187
102
{ACAD_REACTORS
330
186
102
}
330
186
100
AcMapDMSurrogateStyleSets
 70
     1
  1
Map Base
 70
     1
 40
1.797693134862314E+99
 70
     1
 70
     1
 70
     1
 70
     1
330
185
 70
     0
  0
ENDSEC
  0
EOF
